  0
SECTION
  2
HEADER
  9
$ACADVER
  1
AC1032
  9
$ACADMAINTVER
 90
      174
  9
$DWGCODEPAGE
  3
ANSI_936
  9
$LASTSAVEDBY
  1
MSI
  9
$REQUIREDVERSIONS
160
                 0
  9
$INSBASE
 10
0.0
 20
0.0
 30
0.0
  9
$EXTMIN
 10
-136.5605054646872
 20
-0.0445727282412918
 30
-0.0015258207003583
  9
$EXTMAX
 10
297.0
 20
210.0
 30
0.0000000349246037
  9
$LIMMIN
 10
0.0
 20
0.0
  9
$LIMMAX
 10
420.0
 20
297.0
  9
$ORTHOMODE
 70
     0
  9
$REGENMODE
 70
     1
  9
$FILLMODE
 70
     1
  9
$QTEXTMODE
 70
     0
  9
$MIRRTEXT
 70
     0
  9
$LTSCALE
 40
1.0
  9
$ATTMODE
 70
     1
  9
$TEXTSIZE
 40
2.5
  9
$TRACEWID
 40
1.0
  9
$TEXTSTYLE
  7
Standard
  9
$CLAYER
  8
0
  9
$CELTYPE
  6
ByLayer
  9
$CECOLOR
 62
   256
  9
$CELTSCALE
 40
1.0
  9
$DISPSILH
 70
     0
  9
$DIMSCALE
 40
1.0
  9
$DIMASZ
 40
2.5
  9
$DIMEXO
 40
0.625
  9
$DIMDLI
 40
3.75
  9
$DIMRND
 40
0.0
  9
$DIMDLE
 40
0.0
  9
$DIMEXE
 40
1.25
  9
$DIMTP
 40
0.0
  9
$DIMTM
 40
0.0
  9
$DIMTXT
 40
2.5
  9
$DIMCEN
 40
2.5
  9
$DIMTSZ
 40
0.0
  9
$DIMTOL
 70
     0
  9
$DIMLIM
 70
     0
  9
$DIMTIH
 70
     0
  9
$DIMTOH
 70
     0
  9
$DIMSE1
 70
     0
  9
$DIMSE2
 70
     0
  9
$DIMTAD
 70
     1
  9
$DIMZIN
 70
     8
  9
$DIMBLK
  1

  9
$DIMASO
 70
     1
  9
$DIMSHO
 70
     1
  9
$DIMPOST
  1

  9
$DIMAPOST
  1

  9
$DIMALT
 70
     0
  9
$DIMALTD
 70
     3
  9
$DIMALTF
 40
0.03937007874016
  9
$DIMLFAC
 40
1.0
  9
$DIMTOFL
 70
     1
  9
$DIMTVP
 40
0.0
  9
$DIMTIX
 70
     0
  9
$DIMSOXD
 70
     0
  9
$DIMSAH
 70
     0
  9
$DIMBLK1
  1

  9
$DIMBLK2
  1

  9
$DIMSTYLE
  2
ISO-25
  9
$DIMCLRD
 70
     0
  9
$DIMCLRE
 70
     0
  9
$DIMCLRT
 70
     0
  9
$DIMTFAC
 40
1.0
  9
$DIMGAP
 40
0.625
  9
$DIMJUST
 70
     0
  9
$DIMSD1
 70
     0
  9
$DIMSD2
 70
     0
  9
$DIMTOLJ
 70
     0
  9
$DIMTZIN
 70
     8
  9
$DIMALTZ
 70
     0
  9
$DIMALTTZ
 70
     0
  9
$DIMUPT
 70
     0
  9
$DIMDEC
 70
     2
  9
$DIMTDEC
 70
     2
  9
$DIMALTU
 70
     2
  9
$DIMALTTD
 70
     3
  9
$DIMTXSTY
  7
Standard
  9
$DIMAUNIT
 70
     0
  9
$DIMADEC
 70
     0
  9
$DIMALTRND
 40
0.0
  9
$DIMAZIN
 70
     0
  9
$DIMDSEP
 70
    44
  9
$DIMATFIT
 70
     3
  9
$DIMFRAC
 70
     0
  9
$DIMLDRBLK
  1

  9
$DIMLUNIT
 70
     2
  9
$DIMLWD
 70
    -2
  9
$DIMLWE
 70
    -2
  9
$DIMTMOVE
 70
     0
  9
$DIMFXL
 40
1.0
  9
$DIMFXLON
 70
     0
  9
$DIMJOGANG
 40
0.7853981633974483
  9
$DIMTFILL
 70
     0
  9
$DIMTFILLCLR
 70
     0
  9
$DIMARCSYM
 70
     0
  9
$DIMLTYPE
  6

  9
$DIMLTEX1
  6

  9
$DIMLTEX2
  6

  9
$DIMTXTDIRECTION
 70
     0
  9
$LUNITS
 70
     2
  9
$LUPREC
 70
     4
  9
$SKETCHINC
 40
1.0
  9
$FILLETRAD
 40
0.0
  9
$AUNITS
 70
     0
  9
$AUPREC
 70
     0
  9
$MENU
  1
.
  9
$ELEVATION
 40
0.0
  9
$PELEVATION
 40
0.0
  9
$THICKNESS
 40
0.0
  9
$LIMCHECK
 70
     0
  9
$CHAMFERA
 40
0.0
  9
$CHAMFERB
 40
0.0
  9
$CHAMFERC
 40
0.0
  9
$CHAMFERD
 40
0.0
  9
$SKPOLY
 70
     0
  9
$TDCREATE
 40
2460438.559513889
  9
$TDUCREATE
 40
2460438.226180556
  9
$TDUPDATE
 40
2460664.692650463
  9
$TDUUPDATE
 40
2460664.359317130
  9
$TDINDWG
 40
0.1450810185
  9
$TDUSRTIMER
 40
0.1450810185
  9
$USRTIMER
 70
     1
  9
$ANGBASE
 50
0.0
  9
$ANGDIR
 70
     0
  9
$PDMODE
 70
     0
  9
$PDSIZE
 40
0.0
  9
$PLINEWID
 40
0.0
  9
$SPLFRAME
 70
     0
  9
$SPLINETYPE
 70
     6
  9
$SPLINESEGS
 70
     8
  9
$HANDSEED
  5
9EA
  9
$SURFTAB1
 70
     6
  9
$SURFTAB2
 70
     6
  9
$SURFTYPE
 70
     6
  9
$SURFU
 70
     6
  9
$SURFV
 70
     6
  9
$UCSBASE
  2

  9
$UCSNAME
  2

  9
$UCSORG
 10
0.0
 20
0.0
 30
0.0
  9
$UCSXDIR
 10
1.0
 20
0.0
 30
0.0
  9
$UCSYDIR
 10
0.0
 20
1.0
 30
0.0
  9
$UCSORTHOREF
  2

  9
$UCSORTHOVIEW
 70
     0
  9
$UCSORGTOP
 10
0.0
 20
0.0
 30
0.0
  9
$UCSORGBOTTOM
 10
0.0
 20
0.0
 30
0.0
  9
$UCSORGLEFT
 10
0.0
 20
0.0
 30
0.0
  9
$UCSORGRIGHT
 10
0.0
 20
0.0
 30
0.0
  9
$UCSORGFRONT
 10
0.0
 20
0.0
 30
0.0
  9
$UCSORGBACK
 10
0.0
 20
0.0
 30
0.0
  9
$PUCSBASE
  2

  9
$PUCSNAME
  2

  9
$PUCSORG
 10
0.0
 20
0.0
 30
0.0
  9
$PUCSXDIR
 10
1.0
 20
0.0
 30
0.0
  9
$PUCSYDIR
 10
0.0
 20
1.0
 30
0.0
  9
$PUCSORTHOREF
  2

  9
$PUCSORTHOVIEW
 70
     0
  9
$PUCSORGTOP
 10
0.0
 20
0.0
 30
0.0
  9
$PUCSORGBOTTOM
 10
0.0
 20
0.0
 30
0.0
  9
$PUCSORGLEFT
 10
0.0
 20
0.0
 30
0.0
  9
$PUCSORGRIGHT
 10
0.0
 20
0.0
 30
0.0
  9
$PUCSORGFRONT
 10
0.0
 20
0.0
 30
0.0
  9
$PUCSORGBACK
 10
0.0
 20
0.0
 30
0.0
  9
$USERI1
 70
     0
  9
$USERI2
 70
     0
  9
$USERI3
 70
     0
  9
$USERI4
 70
     0
  9
$USERI5
 70
     0
  9
$USERR1
 40
0.0
  9
$USERR2
 40
0.0
  9
$USERR3
 40
0.0
  9
$USERR4
 40
0.0
  9
$USERR5
 40
0.0
  9
$WORLDVIEW
 70
     1
  9
$SHADEDGE
 70
     3
  9
$SHADEDIF
 70
    70
  9
$TILEMODE
 70
     1
  9
$MAXACTVP
 70
    64
  9
$PINSBASE
 10
0.0
 20
0.0
 30
0.0
  9
$PLIMCHECK
 70
     0
  9
$PEXTMIN
 10
0.0
 20
0.0
 30
0.0
  9
$PEXTMAX
 10
0.0
 20
0.0
 30
0.0
  9
$PLIMMIN
 10
0.0
 20
0.0
  9
$PLIMMAX
 10
12.0
 20
9.0
  9
$UNITMODE
 70
     0
  9
$VISRETAIN
 70
     1
  9
$PLINEGEN
 70
     0
  9
$PSLTSCALE
 70
     1
  9
$TREEDEPTH
 70
  3020
  9
$CMLSTYLE
  2
Standard
  9
$CMLJUST
 70
     0
  9
$CMLSCALE
 40
20.0
  9
$PROXYGRAPHICS
 70
     1
  9
$MEASUREMENT
 70
     1
  9
$CELWEIGHT
370
    -1
  9
$ENDCAPS
280
     0
  9
$JOINSTYLE
280
     0
  9
$LWDISPLAY
290
     0
  9
$INSUNITS
 70
     4
  9
$HYPERLINKBASE
  1

  9
$STYLESHEET
  1

  9
$XEDIT
290
     1
  9
$CEPSNTYPE
380
     0
  9
$PSTYLEMODE
290
     1
  9
$FINGERPRINTGUID
  2
{0CFC2FCC-6D4C-3B46-8219-341038C872C5}
  9
$VERSIONGUID
  2
{D64063D9-D1FA-8C40-91AC-621CBDA25F88}
  9
$EXTNAMES
290
     1
  9
$PSVPSCALE
 40
0.0
  9
$OLESTARTUP
290
     0
  9
$SORTENTS
280
   127
  9
$INDEXCTL
280
     0
  9
$HIDETEXT
280
     1
  9
$XCLIPFRAME
280
     2
  9
$HALOGAP
280
     0
  9
$OBSCOLOR
 70
   257
  9
$OBSLTYPE
280
     0
  9
$INTERSECTIONDISPLAY
280
     0
  9
$INTERSECTIONCOLOR
 70
   257
  9
$DIMASSOC
280
     2
  9
$PROJECTNAME
  1

  9
$CAMERADISPLAY
290
     0
  9
$LENSLENGTH
 40
50.0
  9
$CAMERAHEIGHT
 40
0.0
  9
$STEPSPERSEC
 40
2.0
  9
$STEPSIZE
 40
6.0
  9
$3DDWFPREC
 40
2.0
  9
$PSOLWIDTH
 40
5.0
  9
$PSOLHEIGHT
 40
80.0
  9
$LOFTANG1
 40
1.570796326794896
  9
$LOFTANG2
 40
1.570796326794896
  9
$LOFTMAG1
 40
0.0
  9
$LOFTMAG2
 40
0.0
  9
$LOFTPARAM
 70
     7
  9
$LOFTNORMALS
280
     1
  9
$LATITUDE
 40
37.795
  9
$LONGITUDE
 40
-122.394
  9
$NORTHDIRECTION
 40
0.0
  9
$TIMEZONE
 70
 -8000
  9
$LIGHTGLYPHDISPLAY
280
     1
  9
$TILEMODELIGHTSYNCH
280
     1
  9
$CMATERIAL
347
EC
  9
$SOLIDHIST
280
     0
  9
$SHOWHIST
280
     1
  9
$DWFFRAME
280
     2
  9
$DGNFRAME
280
     0
  9
$REALWORLDSCALE
290
     1
  9
$INTERFERECOLOR
 62
     1
  9
$INTERFEREOBJVS
345
F9
  9
$INTERFEREVPVS
346
F6
  9
$CSHADOW
280
     0
  9
$SHADOWPLANELOCATION
 40
0.0
  0
ENDSEC
  0
SECTION
  2
CLASSES
  0
CLASS
  1
ACDBDICTIONARYWDFLT
  2
AcDbDictionaryWithDefault
  3
ObjectDBX Classes
 90
        0
 91
        1
280
     0
281
     0
  0
CLASS
  1
ACDBPLACEHOLDER
  2
AcDbPlaceHolder
  3
ObjectDBX Classes
 90
        0
 91
        1
280
     0
281
     0
  0
CLASS
  1
LAYOUT
  2
AcDbLayout
  3
ObjectDBX Classes
 90
        0
 91
        3
280
     0
281
     0
  0
CLASS
  1
DICTIONARYVAR
  2
AcDbDictionaryVar
  3
ObjectDBX Classes
 90
        0
 91
       11
280
     0
281
     0
  0
CLASS
  1
TABLESTYLE
  2
AcDbTableStyle
  3
ObjectDBX Classes
 90
     4095
 91
        1
280
     0
281
     0
  0
CLASS
  1
MATERIAL
  2
AcDbMaterial
  3
ObjectDBX Classes
 90
     1153
 91
        3
280
     0
281
     0
  0
CLASS
  1
VISUALSTYLE
  2
AcDbVisualStyle
  3
ObjectDBX Classes
 90
     4095
 91
       24
280
     0
281
     0
  0
CLASS
  1
SCALE
  2
AcDbScale
  3
ObjectDBX Classes
 90
     1153
 91
       17
280
     0
281
     0
  0
CLASS
  1
MLEADERSTYLE
  2
AcDbMLeaderStyle
  3
ACDB_MLEADERSTYLE_CLASS
 90
     4095
 91
        3
280
     0
281
     0
  0
CLASS
  1
CELLSTYLEMAP
  2
AcDbCellStyleMap
  3
ObjectDBX Classes
 90
     1152
 91
        9
280
     0
281
     0
  0
CLASS
  1
EXACXREFPANELOBJECT
  2
ExAcXREFPanelObject
  3
EXAC_ESW
 90
     1025
 91
        0
280
     0
281
     0
  0
CLASS
  1
NPOCOLLECTION
  2
AcDbImpNonPersistentObjectsCollection
  3
ObjectDBX Classes
 90
     1153
 91
        0
280
     0
281
     0
  0
CLASS
  1
LAYER_INDEX
  2
AcDbLayerIndex
  3
ObjectDBX Classes
 90
        0
 91
        0
280
     0
281
     0
  0
CLASS
  1
SPATIAL_INDEX
  2
AcDbSpatialIndex
  3
ObjectDBX Classes
 90
        0
 91
        0
280
     0
281
     0
  0
CLASS
  1
IDBUFFER
  2
AcDbIdBuffer
  3
ObjectDBX Classes
 90
        0
 91
        0
280
     0
281
     0
  0
CLASS
  1
ACDBSECTIONVIEWSTYLE
  2
AcDbSectionViewStyle
  3
ObjectDBX Classes
 90
     1025
 91
        1
280
     0
281
     0
  0
CLASS
  1
ACDBDETAILVIEWSTYLE
  2
AcDbDetailViewStyle
  3
ObjectDBX Classes
 90
     1025
 91
        1
280
     0
281
     0
  0
CLASS
  1
SORTENTSTABLE
  2
AcDbSortentsTable
  3
ObjectDBX Classes
 90
        0
 91
        0
280
     0
281
     0
  0
CLASS
  1
ACDBASSOC2DCONSTRAINTGROUP
  2
AcDbAssoc2dConstraintGroup
  3
ObjectDBX Classes
 90
     1025
 91
        3
280
     0
281
     0
  0
CLASS
  1
ACDBASSOCGEOMDEPENDENCY
  2
AcDbAssocGeomDependency
  3
ObjectDBX Classes
 90
     1025
 91
       18
280
     0
281
     0
  0
CLASS
  1
ACDBASSOCVALUEDEPENDENCY
  2
AcDbAssocValueDependency
  3
ObjectDBX Classes
 90
     1025
 91
        6
280
     0
281
     0
  0
CLASS
  1
ACDBASSOCDEPENDENCY
  2
AcDbAssocDependency
  3
ObjectDBX Classes
 90
     1025
 91
       10
280
     0
281
     0
  0
CLASS
  1
ASSOCDIMDEPENDENCYBODY
  2
AcDbAssocDimDependencyBody
  3
ObjectDBX Classes
 90
     1025
 91
        6
280
     0
281
     0
  0
CLASS
  1
ACDBASSOCVARIABLE
  2
AcDbAssocVariable
  3
ObjectDBX Classes
 90
     1025
 91
        6
280
     0
281
     0
  0
CLASS
  1
ACDBASSOCNETWORK
  2
AcDbAssocNetwork
  3
ObjectDBX Classes
 90
     1025
 91
        6
280
     0
281
     0
  0
CLASS
  1
RAPIDRTRENDERSETTINGS
  2
AcDbRapidRTRenderSettings
  3
ObjectDBX Classes
 90
     1024
 91
       21
280
     0
281
     0
  0
CLASS
  1
ACAD_TABLE
  2
AcDbTable
  3
ObjectDBX Classes
 90
     1025
 91
        2
280
     0
281
     1
  0
CLASS
  1
DIMASSOC
  2
AcDbDimAssoc
  3
"AcDbDimAssoc|Product Desc:     AcDim ARX App For Dimension|Company:          Autodesk, Inc.|WEB Address:      www.autodesk.com"
 90
        0
 91
        4
280
     0
281
     0
  0
CLASS
  1
MULTILEADER
  2
AcDbMLeader
  3
ACDB_MLEADER_CLASS
 90
     1025
 91
        4
280
     0
281
     1
  0
CLASS
  1
ACDBASSOCACTION
  2
AcDbAssocAction
  3
ObjectDBX Classes
 90
     1025
 91
        4
280
     0
281
     0
  0
CLASS
  1
AcDbCenterMarkActionBody
  2
AcDbCenterMarkActionBody
  3
AcDbSmartCenter
 90
     1153
 91
        2
280
     0
281
     0
  0
CLASS
  1
ACDBASSOCEDGEACTIONPARAM
  2
AcDbAssocEdgeActionParam
  3
ObjectDBX Classes
 90
     1025
 91
        6
280
     0
281
     0
  0
CLASS
  1
AcDbCenterLineActionBody
  2
AcDbCenterLineActionBody
  3
AcDbSmartCenter
 90
     1153
 91
        2
280
     0
281
     0
  0
CLASS
  1
TABLECONTENT
  2
AcDbTableContent
  3
ObjectDBX Classes
 90
     1152
 91
       28
280
     0
281
     0
  0
CLASS
  1
TABLEGEOMETRY
  2
AcDbTableGeometry
  3
ObjectDBX Classes
 90
     1152
 91
       28
280
     0
281
     0
  0
ENDSEC
  0
SECTION
  2
TABLES
  0
TABLE
  2
VPORT
  5
8
330
0
100
AcDbSymbolTable
 70
     1
  0
VPORT
  5
EA
330
8
100
AcDbSymbolTableRecord
100
AcDbViewportTableRecord
  2
*Active
 70
     0
 10
0.0
 20
0.0
 11
1.0
 21
1.0
 12
-119.2387436549962
 22
53.98048470591857
 13
0.0
 23
0.0
 14
10.0
 24
10.0
 15
10.0
 25
10.0
 16
0.0
 26
0.0
 36
1.0
 17
0.0
 27
0.0
 37
0.0
 40
667.1480266785111
 41
2.447704081632652
 42
50.0
 43
0.0
 44
0.0
 50
0.0
 51
0.0
 71
     0
 72
  1000
 73
     1
 74
     3
 75
     0
 76
     0
 77
     0
 78
     0
281
     0
 65
     1
110
0.0
120
0.0
130
0.0
111
1.0
121
0.0
131
0.0
112
0.0
122
1.0
132
0.0
 79
     0
146
0.0
348
F5
 60
     3
 61
     5
292
     1
282
     1
141
0.0
142
0.0
 63
   250
421
  3355443
1001
ACAD_NAV_VCDISPLAY
1070
     3
  0
ENDTAB
  0
TABLE
  2
LTYPE
  5
5
330
0
100
AcDbSymbolTable
 70
     5
  0
LTYPE
  5
14
330
5
100
AcDbSymbolTableRecord
100
AcDbLinetypeTableRecord
  2
ByBlock
 70
     0
  3

 72
    65
 73
     0
 40
0.0
  0
LTYPE
  5
15
330
5
100
AcDbSymbolTableRecord
100
AcDbLinetypeTableRecord
  2
ByLayer
 70
     0
  3

 72
    65
 73
     0
 40
0.0
  0
LTYPE
  5
16
330
5
100
AcDbSymbolTableRecord
100
AcDbLinetypeTableRecord
  2
Continuous
 70
     0
  3
Solid line
 72
    65
 73
     0
 40
0.0
  0
LTYPE
  5
2B8
330
5
100
AcDbSymbolTableRecord
100
AcDbLinetypeTableRecord
  2
CENTER
 70
     0
  3
Center ____ _ ____ _ ____ _ ____ _ ____ _ ____
 72
    65
 73
     4
 40
10.16
 49
6.349999999999999
 74
     0
 49
-1.27
 74
     0
 49
1.27
 74
     0
 49
-1.27
 74
     0
  0
LTYPE
  5
2B9
330
5
100
AcDbSymbolTableRecord
100
AcDbLinetypeTableRecord
  2
Amconstr
 70
     0
  3
_______________________
 72
    65
 73
     2
 40
9999.0
 49
9999.0
 74
     0
 49
0.0
 74
     0
  0
LTYPE
  5
7A4
330
5
100
AcDbSymbolTableRecord
100
AcDbLinetypeTableRecord
  2
CENTER2
 70
     0
  3
Center (.5x) ___ _ ___ _ ___ _ ___ _ ___ _ ___
 72
    65
 73
     4
 40
1.125
 49
0.75
 74
     0
 49
-0.125
 74
     0
 49
0.125
 74
     0
 49
-0.125
 74
     0
  0
ENDTAB
  0
TABLE
  2
LAYER
  5
2
102
{ACAD_XDICTIONARY
360
1FF
102
}
330
0
100
AcDbSymbolTable
 70
    10
  0
LAYER
  5
10
102
{ACAD_XDICTIONARY
360
13C
102
}
330
2
100
AcDbSymbolTableRecord
100
AcDbLayerTableRecord
  2
0
 70
     0
 62
     7
  6
Continuous
370
    -3
390
F
347
EE
348
0
  0
LAYER
  5
2BA
102
{ACAD_XDICTIONARY
360
2BB
102
}
330
2
100
AcDbSymbolTableRecord
100
AcDbLayerTableRecord
  2
粗实线层
 70
     0
 62
     7
  6
Continuous
370
    25
390
F
347
EE
348
0
  0
LAYER
  5
2BC
102
{ACAD_XDICTIONARY
360
2BD
102
}
330
2
100
AcDbSymbolTableRecord
100
AcDbLayerTableRecord
  2
细实线层
 70
     0
 62
     7
  6
Continuous
370
    -3
390
F
347
EE
348
0
  0
LAYER
  5
2BE
330
2
100
AcDbSymbolTableRecord
100
AcDbLayerTableRecord
  2
Defpoints
 70
     0
 62
     7
  6
Continuous
290
     0
370
    -3
390
F
347
EE
348
0
  0
LAYER
  5
2BF
102
{ACAD_XDICTIONARY
360
2C0
102
}
330
2
100
AcDbSymbolTableRecord
100
AcDbLayerTableRecord
  2
1轮廓实线层
 70
     0
 62
     7
  6
Continuous
370
    -3
390
F
347
EE
348
0
  0
LAYER
  5
2C1
102
{ACAD_XDICTIONARY
360
2C2
102
}
330
2
100
AcDbSymbolTableRecord
100
AcDbLayerTableRecord
  2
3中心线层
 70
     0
 62
     1
  6
CENTER
370
     9
390
F
347
EE
348
0
  0
LAYER
  5
2C3
102
{ACAD_XDICTIONARY
360
2C4
102
}
330
2
100
AcDbSymbolTableRecord
100
AcDbLayerTableRecord
  2
6文字层
 70
     0
 62
     3
  6
Continuous
370
    -3
390
F
347
EE
348
0
  0
LAYER
  5
2C5
102
{ACAD_XDICTIONARY
360
2C6
102
}
330
2
100
AcDbSymbolTableRecord
100
AcDbLayerTableRecord
  2
7标注层
 70
     0
 62
     4
  6
Continuous
370
     5
390
F
347
EE
348
0
  0
LAYER
  5
2C7
102
{ACAD_XDICTIONARY
360
2C8
102
}
330
2
100
AcDbSymbolTableRecord
100
AcDbLayerTableRecord
  2
2细线层
 70
     0
 62
     4
  6
Continuous
370
    15
390
F
347
EE
348
0
  0
LAYER
  5
2C9
330
2
100
AcDbSymbolTableRecord
100
AcDbLayerTableRecord
  2
*ADSK_CONSTRAINTS
 70
     0
 62
     7
  6
Continuous
370
    -3
390
F
347
EE
348
0
  0
ENDTAB
  0
TABLE
  2
STYLE
  5
3
330
0
100
AcDbSymbolTable
 70
     8
  0
STYLE
  5
11
330
3
100
AcDbSymbolTableRecord
100
AcDbTextStyleTableRecord
  2
Standard
 70
     0
 40
0.0
 41
1.0
 50
0.0
 71
     0
 42
2.5
  3
arial.ttf
  4

1001
ACAD
1000
Arial
1071
       34
  0
STYLE
  5
132
330
3
100
AcDbSymbolTableRecord
100
AcDbTextStyleTableRecord
  2
Annotative
 70
     0
 40
0.0
 41
1.0
 50
0.0
 71
     0
 42
2.5
  3
arial.ttf
  4

1001
AcadAnnotative
1000
AnnotativeData
1002
{
1070
     1
1070
     1
1002
}
1001
ACAD
1000
Arial
1071
       34
  0
STYLE
  5
2CA
330
3
100
AcDbSymbolTableRecord
100
AcDbTextStyleTableRecord
  2
标准
 70
     0
 40
9.589999999999999
 41
1.0
 50
0.0
 71
     0
 42
0.0
  3

  4

1001
ACAD
1000
SimSun
1071
       34
  0
STYLE
  5
2CB
330
3
100
AcDbSymbolTableRecord
100
AcDbTextStyleTableRecord
  2
TH-GBD2M
 70
     0
 40
2.5
 41
0.8
 50
0.0
 71
     0
 42
2.5
  3
calibri.ttf
  4

1001
AcadAnnotative
1000
AnnotativeData
1002
{
1070
     1
1070
     1
1002
}
1001
ACAD
1000
Calibri
1071
       34
  0
STYLE
  5
2CC
330
3
100
AcDbSymbolTableRecord
100
AcDbTextStyleTableRecord
  2
TH_GBDIM
 70
     0
 40
1.5
 41
0.8
 50
0.0
 71
     0
 42
5.0
  3
calibri.ttf
  4

1001
ACAD
1000
Calibri
1071
       34
  0
STYLE
  5
7A5
330
3
100
AcDbSymbolTableRecord
100
AcDbTextStyleTableRecord
  2
表格
 70
     0
 40
2.5
 41
1.0
 50
0.0
 71
     0
 42
1.5
  3

  4

1001
AcadAnnotative
1000
AnnotativeData
1002
{
1070
     1
1070
     1
1002
}
1001
ACAD
1000
SimSun
1071
    34306
  0
ENDTAB
  0
TABLE
  2
VIEW
  5
6
330
0
100
AcDbSymbolTable
 70
    30
  0
ENDTAB
  0
TABLE
  2
UCS
  5
7
330
0
100
AcDbSymbolTable
 70
     0
  0
ENDTAB
  0
TABLE
  2
APPID
  5
9
330
0
100
AcDbSymbolTable
 70
    20
  0
APPID
  5
12
330
9
100
AcDbSymbolTableRecord
100
AcDbRegAppTableRecord
  2
ACAD
 70
     0
  0
APPID
  5
9E
330
9
100
AcDbSymbolTableRecord
100
AcDbRegAppTableRecord
  2
ACAD_PSEXT
 70
     0
  0
APPID
  5
133
330
9
100
AcDbSymbolTableRecord
100
AcDbRegAppTableRecord
  2
AcadAnnoPO
 70
     0
  0
APPID
  5
134
330
9
100
AcDbSymbolTableRecord
100
AcDbRegAppTableRecord
  2
AcadAnnotative
 70
     0
  0
APPID
  5
135
330
9
100
AcDbSymbolTableRecord
100
AcDbRegAppTableRecord
  2
ACAD_DSTYLE_DIMJAG
 70
     0
  0
APPID
  5
136
330
9
100
AcDbSymbolTableRecord
100
AcDbRegAppTableRecord
  2
ACAD_DSTYLE_DIMTALN
 70
     0
  0
APPID
  5
165
330
9
100
AcDbSymbolTableRecord
100
AcDbRegAppTableRecord
  2
ACAD_MLEADERVER
 70
     0
  0
APPID
  5
217
330
9
100
AcDbSymbolTableRecord
100
AcDbRegAppTableRecord
  2
ACAD_NAV_VCDISPLAY
 70
     0
  0
APPID
  5
2CE
330
9
100
AcDbSymbolTableRecord
100
AcDbRegAppTableRecord
  2
ACAD_DSTYLE_DIMBREAK
 70
     0
  0
APPID
  5
2CF
330
9
100
AcDbSymbolTableRecord
100
AcDbRegAppTableRecord
  2
ACAD_DSTYLE_DIMRADIAL_EXTENSION
 70
     0
  0
APPID
  5
2D0
330
9
100
AcDbSymbolTableRecord
100
AcDbRegAppTableRecord
  2
ACAD_DSTYLE_DIMINSPECT
 70
     0
  0
APPID
  5
2D1
330
9
100
AcDbSymbolTableRecord
100
AcDbRegAppTableRecord
  2
GENIUS_GENDTOL_13
 70
     0
  0
APPID
  5
2D2
330
9
100
AcDbSymbolTableRecord
100
AcDbRegAppTableRecord
  2
AcDbBlockRepETag
 70
     0
  0
APPID
  5
2D3
330
9
100
AcDbSymbolTableRecord
100
AcDbRegAppTableRecord
  2
CAXA_DRAFT_PAPERFRAME
 70
     0
  0
APPID
  5
2D4
330
9
100
AcDbSymbolTableRecord
100
AcDbRegAppTableRecord
  2
CAXA_DRAFT_BLKHIDE
 70
     0
  0
APPID
  5
2D5
330
9
100
AcDbSymbolTableRecord
100
AcDbRegAppTableRecord
  2
GradientColor1ACI
 70
     0
  0
APPID
  5
2D6
330
9
100
AcDbSymbolTableRecord
100
AcDbRegAppTableRecord
  2
GradientColor2ACI
 70
     0
  0
APPID
  5
42E
330
9
100
AcDbSymbolTableRecord
100
AcDbRegAppTableRecord
  2
ACAD_DSTYLE_DIMJAG_POSITION
 70
     0
  0
APPID
  5
436
330
9
100
AcDbSymbolTableRecord
100
AcDbRegAppTableRecord
  2
AcadAnnoMonitorAlertIconDisabled
 70
     0
  0
APPID
  5
437
330
9
100
AcDbSymbolTableRecord
100
AcDbRegAppTableRecord
  2
ACAD_EXEMPT_FROM_CAD_STANDARDS
 70
     0
  0
ENDTAB
  0
TABLE
  2
DIMSTYLE
  5
A
330
0
100
AcDbSymbolTable
 70
     7
100
AcDbDimStyleTable
 71
     2
340
27
340
137
  0
DIMSTYLE
105
1B0
330
A
100
AcDbSymbolTableRecord
100
AcDbDimStyleTableRecord
  2
Standard
 70
     0
340
11
  0
DIMSTYLE
105
137
330
A
100
AcDbSymbolTableRecord
100
AcDbDimStyleTableRecord
  2
Annotative
 70
     0
 40
0.0
 41
2.5
 42
0.625
 43
3.75
 44
1.25
 73
     0
 74
     0
 77
     1
 78
     8
140
2.5
141
2.5
143
0.03937007874016
147
0.625
171
     3
172
     1
271
     2
272
     2
274
     3
278
    44
283
     0
284
     8
340
11
1001
AcadAnnotative
1000
AnnotativeData
1002
{
1070
     1
1070
     1
1002
}
1001
ACAD_DSTYLE_DIMJAG
1070
   388
1040
1.5
1001
ACAD_DSTYLE_DIMTALN
1070
   392
1070
     0
  0
DIMSTYLE
105
27
102
{ACAD_REACTORS
330
688
102
}
330
A
100
AcDbSymbolTableRecord
100
AcDbDimStyleTableRecord
  2
ISO-25
 70
     0
 41
2.5
 42
0.625
 43
3.75
 44
1.25
 73
     0
 74
     0
 77
     1
 78
     8
140
2.5
141
2.5
143
0.03937007874016
147
0.625
171
     3
172
     1
271
     2
272
     2
274
     3
278
    44
283
     0
284
     8
340
11
  0
DIMSTYLE
105
2CD
102
{ACAD_REACTORS
330
689
330
7E3
330
83B
102
}
330
A
100
AcDbSymbolTableRecord
100
AcDbDimStyleTableRecord
  2
TH-GBD2M
 70
     0
 41
4.0
 42
0.0
 44
2.0
 73
     0
 74
     0
 77
     1
 78
     9
 79
     3
140
3.5
141
0.0
147
1.5
178
     3
340
2CB
1001
ACAD_DSTYLE_DIMBREAK
1070
   391
1040
3.75
1001
ACAD_DSTYLE_DIMJAG
1070
   388
1040
1.5
1001
ACAD_DSTYLE_DIMTALN
1070
   392
1070
     0
  0
DIMSTYLE
105
7A6
102
{ACAD_REACTORS
330
7DE
330
836
102
}
330
A
100
AcDbSymbolTableRecord
100
AcDbDimStyleTableRecord
  2
ISO-25_2.0
 70
     0
 41
4.0
 42
0.625
 43
3.75
 44
1.25
 73
     0
 77
     1
 78
     8
140
2.5
141
2.5
143
0.03937007874016
147
0.625
171
     3
172
     1
176
   256
178
     3
271
     2
272
     2
274
     3
283
     0
284
     8
340
2CB
1001
ACAD_DSTYLE_DIMBREAK
1070
   391
1040
3.75
1001
ACAD_DSTYLE_DIMJAG
1070
   388
1040
1.5
1001
ACAD_DSTYLE_DIMTALN
1070
   392
1070
     0
  0
ENDTAB
  0
TABLE
  2
BLOCK_RECORD
  5
1
330
0
100
AcDbSymbolTable
 70
    27
  0
BLOCK_RECORD
  5
1F
102
{ACAD_XDICTIONARY
360
1CE
102
}
330
1
100
AcDbSymbolTableRecord
100
AcDbBlockTableRecord
  2
*Model_Space
340
22
 70
     0
280
     1
281
     0
  0
BLOCK_RECORD
  5
D2
330
1
100
AcDbSymbolTableRecord
100
AcDbBlockTableRecord
  2
*Paper_Space
340
D3
 70
     0
280
     1
281
     0
  0
BLOCK_RECORD
  5
D6
330
1
100
AcDbSymbolTableRecord
100
AcDbBlockTableRecord
  2
*Paper_Space0
340
D7
 70
     0
280
     1
281
     0
  0
BLOCK_RECORD
  5
277
330
1
100
AcDbSymbolTableRecord
100
AcDbBlockTableRecord
  2
*X1
340
0
 70
     0
280
     1
281
     0
  0
BLOCK_RECORD
  5
34C
330
1
100
AcDbSymbolTableRecord
100
AcDbBlockTableRecord
  2
_ClosedBlank
340
0
 70
     0
280
     1
281
     0
  0
BLOCK_RECORD
  5
3D0
330
1
100
AcDbSymbolTableRecord
100
AcDbBlockTableRecord
  2
*D3
340
0
 70
     0
280
     1
281
     0
  0
BLOCK_RECORD
  5
3E9
330
1
100
AcDbSymbolTableRecord
100
AcDbBlockTableRecord
  2
*D4
340
0
 70
     0
280
     1
281
     0
  0
BLOCK_RECORD
  5
62A
330
1
100
AcDbSymbolTableRecord
100
AcDbBlockTableRecord
  2
*X5
340
0
102
{BLKREFS
102
}
 70
     0
280
     1
281
     0
  0
BLOCK_RECORD
  5
639
330
1
100
AcDbSymbolTableRecord
100
AcDbBlockTableRecord
  2
*D6
340
0
 70
     0
280
     1
281
     0
  0
BLOCK_RECORD
  5
645
330
1
100
AcDbSymbolTableRecord
100
AcDbBlockTableRecord
  2
*D7
340
0
 70
     0
280
     1
281
     0
  0
BLOCK_RECORD
  5
704
330
1
100
AcDbSymbolTableRecord
100
AcDbBlockTableRecord
  2
*D11
340
0
 70
     0
280
     1
281
     0
  0
BLOCK_RECORD
  5
710
330
1
100
AcDbSymbolTableRecord
100
AcDbBlockTableRecord
  2
*D12
340
0
 70
     0
280
     1
281
     0
  0
BLOCK_RECORD
  5
757
330
1
100
AcDbSymbolTableRecord
100
AcDbBlockTableRecord
  2
*X13
340
0
102
{BLKREFS
331
802
102
}
 70
     0
280
     1
281
     0
  0
BLOCK_RECORD
  5
766
330
1
100
AcDbSymbolTableRecord
100
AcDbBlockTableRecord
  2
*T14
340
0
102
{BLKREFS
102
}
 70
     0
280
     1
281
     0
  0
BLOCK_RECORD
  5
77E
330
1
100
AcDbSymbolTableRecord
100
AcDbBlockTableRecord
  2
*U15
340
0
102
{BLKREFS
102
}
 70
     0
280
     1
281
     0
  0
BLOCK_RECORD
  5
787
330
1
100
AcDbSymbolTableRecord
100
AcDbBlockTableRecord
  2
*U16
340
0
102
{BLKREFS
102
}
 70
     0
280
     1
281
     0
  0
BLOCK_RECORD
  5
78B
330
1
100
AcDbSymbolTableRecord
100
AcDbBlockTableRecord
  2
*D17
340
0
 70
     0
280
     1
281
     0
  0
BLOCK_RECORD
  5
797
330
1
100
AcDbSymbolTableRecord
100
AcDbBlockTableRecord
  2
*D18
340
0
 70
     0
280
     1
281
     0
  0
BLOCK_RECORD
  5
84E
330
1
100
AcDbSymbolTableRecord
100
AcDbBlockTableRecord
  2
*U22
340
0
102
{BLKREFS
331
839
102
}
 70
     0
280
     1
281
     0
  0
BLOCK_RECORD
  5
857
330
1
100
AcDbSymbolTableRecord
100
AcDbBlockTableRecord
  2
*U23
340
0
102
{BLKREFS
331
83A
102
}
 70
     0
280
     1
281
     0
  0
BLOCK_RECORD
  5
85B
330
1
100
AcDbSymbolTableRecord
100
AcDbBlockTableRecord
  2
*T24
340
0
102
{BLKREFS
331
823
102
}
 70
     0
280
     1
281
     0
  0
BLOCK_RECORD
  5
875
330
1
100
AcDbSymbolTableRecord
100
AcDbBlockTableRecord
  2
*D25
340
0
 70
     0
280
     1
281
     0
  0
BLOCK_RECORD
  5
881
330
1
100
AcDbSymbolTableRecord
100
AcDbBlockTableRecord
  2
*D26
340
0
 70
     0
280
     1
281
     0
  0
ENDTAB
  0
ENDSEC
  0
SECTION
  2
BLOCKS
  0
BLOCK
  5
20
330
1F
100
AcDbEntity
  8
0
100
AcDbBlockBegin
  2
*Model_Space
 70
     0
 10
0.0
 20
0.0
 30
0.0
  3
*Model_Space
  1

  0
ENDBLK
  5
21
330
1F
100
AcDbEntity
  8
0
100
AcDbBlockEnd
  0
BLOCK
  5
D4
330
D2
100
AcDbEntity
 67
     1
  8
0
100
AcDbBlockBegin
  2
*Paper_Space
 70
     0
 10
0.0
 20
0.0
 30
0.0
  3
*Paper_Space
  1

  0
ENDBLK
  5
D5
330
D2
100
AcDbEntity
 67
     1
  8
0
100
AcDbBlockEnd
  0
BLOCK
  5
D8
330
D6
100
AcDbEntity
 67
     1
  8
0
100
AcDbBlockBegin
  2
*Paper_Space0
 70
     0
 10
0.0
 20
0.0
 30
0.0
  3
*Paper_Space0
  1

  0
ENDBLK
  5
D9
330
D6
100
AcDbEntity
 67
     1
  8
0
100
AcDbBlockEnd
  0
BLOCK
  5
278
330
277
100
AcDbEntity
  8
0
100
AcDbBlockBegin
  2
*X1
 70
     1
 10
0.0
 20
0.0
 30
0.0
  3
*X1
  1

  0
LINE
  5
279
330
277
100
AcDbEntity
  8
细实线层
100
AcDbLine
 10
-148.5
 20
-105.0
 30
0.0
 11
148.5
 21
-105.0
 31
0.0
  0
LINE
  5
27A
330
277
100
AcDbEntity
  8
细实线层
100
AcDbLine
 10
148.5
 20
-105.0
 30
0.0
 11
148.5
 21
105.0
 31
0.0
  0
LINE
  5
27B
330
277
100
AcDbEntity
  8
细实线层
100
AcDbLine
 10
148.5
 20
105.0
 30
0.0
 11
-148.5
 21
105.0
 31
0.0
  0
LINE
  5
27C
330
277
100
AcDbEntity
  8
细实线层
100
AcDbLine
 10
-148.5
 20
105.0
 30
0.0
 11
-148.5
 21
-105.0
 31
0.0
  0
LINE
  5
27D
330
277
100
AcDbEntity
  8
粗实线层
100
AcDbLine
 10
-138.5
 20
95.0
 30
0.0
 11
-138.5
 21
-94.99999999999998
 31
0.0
  0
LINE
  5
27E
330
277
100
AcDbEntity
  8
粗实线层
100
AcDbLine
 10
-138.5
 20
-94.99999999999998
 30
0.0
 11
138.5
 21
-95.0
 31
0.0
  0
LINE
  5
27F
330
277
100
AcDbEntity
  8
粗实线层
100
AcDbLine
 10
138.5
 20
-95.0
 30
0.0
 11
138.5
 21
95.0
 31
0.0
  0
LINE
  5
280
330
277
100
AcDbEntity
  8
粗实线层
100
AcDbLine
 10
138.5
 20
95.0
 30
0.0
 11
-138.5
 21
95.0
 31
0.0
  0
LINE
  5
281
330
277
100
AcDbEntity
  8
粗实线层
370
    60
100
AcDbLine
 10
-148.5
 20
0.0
 30
0.0
 11
-133.5
 21
0.0
 31
0.0
  0
LINE
  5
282
330
277
100
AcDbEntity
  8
粗实线层
370
    60
100
AcDbLine
 10
148.5
 20
0.0
 30
0.0
 11
133.5
 21
0.0
 31
0.0
  0
LINE
  5
283
330
277
100
AcDbEntity
  8
粗实线层
370
    60
100
AcDbLine
 10
0.0
 20
105.0
 30
0.0
 11
0.0
 21
90.0
 31
0.0
  0
LINE
  5
284
330
277
100
AcDbEntity
  8
粗实线层
370
    60
100
AcDbLine
 10
0.0
 20
-105.0
 30
0.0
 11
0.0
 21
-95.0
 31
0.0
  0
ENDBLK
  5
285
330
277
100
AcDbEntity
  8
0
100
AcDbBlockEnd
  0
BLOCK
  5
350
330
34C
100
AcDbEntity
  8
0
100
AcDbBlockBegin
  2
_ClosedBlank
 70
     0
 10
0.0
 20
0.0
 30
0.0
  3
_ClosedBlank
  1

  0
LINE
  5
34D
330
34C
100
AcDbEntity
  8
0
  6
ByBlock
 62
     0
370
    -2
100
AcDbLine
 10
-1.0
 20
0.1666666666666666
 30
0.0
 11
0.0
 21
0.0
 31
0.0
  0
LINE
  5
34E
330
34C
100
AcDbEntity
  8
0
  6
ByBlock
 62
     0
370
    -2
100
AcDbLine
 10
0.0
 20
0.0
 30
0.0
 11
-1.0
 21
-0.1666666666666666
 31
0.0
  0
LINE
  5
34F
330
34C
100
AcDbEntity
  8
0
  6
ByBlock
 62
     0
370
    -2
100
AcDbLine
 10
-1.0
 20
0.1666666666666666
 30
0.0
 11
-1.0
 21
-0.1666666666666666
 31
0.0
  0
ENDBLK
  5
351
330
34C
100
AcDbEntity
  8
0
100
AcDbBlockEnd
  0
BLOCK
  5
3D1
330
3D0
100
AcDbEntity
  8
0
100
AcDbBlockBegin
  2
*D3
 70
     1
 10
0.0
 20
0.0
 30
0.0
  3
*D3
  1

  0
LINE
  5
617
330
3D0
100
AcDbEntity
  8
7标注层
 62
     0
440
 16777216
370
    -2
100
AcDbLine
 10
2777.578468637177
 20
1439.969425672903
 30
0.0
 11
2766.797360944869
 21
1439.969425672902
 31
0.0
  0
LINE
  5
618
330
3D0
100
AcDbEntity
  8
7标注层
 62
     0
440
 16777216
370
    -2
100
AcDbLine
 10
2766.797360944869
 20
1439.969425672902
 30
0.0
 11
2765.861314918629
 21
1437.651276014929
 31
0.0
  0
LINE
  5
619
330
3D0
100
AcDbEntity
  8
7标注层
 62
     0
440
 16777216
370
    -2
100
AcDbLine
 10
2754.628762304211
 20
1409.833479377448
 30
0.0
 11
2753.692716277971
 21
1407.515329719475
 31
0.0
  0
MTEXT
  5
61A
330
3D0
100
AcDbEntity
  8
7标注层
 62
     0
440
 16777216
100
AcDbMText
 10
2772.437914791023
 20
1442.360297467775
 30
0.0
 40
2.5
 41
7.202461538461538
 46
0.0
 71
     5
 72
     1
  1
{\H0.8x;∅25,00\H0.7x;\S+0.0^ -0.2;}
  7
TH-GBD2M
 73
     1
 44
1.0
  0
LINE
  5
61B
330
3D0
100
AcDbEntity
  8
7标注层
 62
     0
440
 16777216
370
    -2
100
AcDbLine
 10
2755.564808330452
 20
1412.151629035421
 30
0.0
 11
2764.925268892389
 21
1435.333126356957
 31
0.0
  0
SOLID
  5
61C
330
3D0
100
AcDbEntity
  8
7标注层
 62
     0
440
 16777216
100
AcDbTrace
 10
2754.242404027882
 20
1409.989487048488
 30
0.0
 11
2755.015120580539
 21
1409.677471706408
 31
0.0
 12
2755.564808330452
 22
1412.151629035421
 32
0.0
 13
2755.564808330452
 23
1412.151629035421
 33
0.0
  0
SOLID
  5
61D
330
3D0
100
AcDbEntity
  8
7标注层
 62
     0
440
 16777216
100
AcDbTrace
 10
2765.4749566423
 20
1437.80728368597
 30
0.0
 11
2766.247673194958
 21
1437.495268343889
 31
0.0
 12
2764.925268892389
 22
1435.333126356957
 32
0.0
 13
2764.925268892389
 23
1435.333126356957
 33
0.0
  0
POINT
  5
61E
330
3D0
100
AcDbEntity
  8
Defpoints
 62
     0
440
 16777216
100
AcDbPoint
 10
2764.925268892389
 20
1435.333126356957
 30
0.0
  0
POINT
  5
61F
330
3D0
100
AcDbEntity
  8
Defpoints
 62
     0
440
 16777216
100
AcDbPoint
 10
2755.564808330452
 20
1412.151629035421
 30
0.0
  0
ENDBLK
  5
3D2
330
3D0
100
AcDbEntity
  8
0
100
AcDbBlockEnd
  0
BLOCK
  5
3EA
330
3E9
100
AcDbEntity
  8
0
100
AcDbBlockBegin
  2
*D4
 70
     1
 10
0.0
 20
0.0
 30
0.0
  3
*D4
  1

  0
LINE
  5
620
330
3E9
100
AcDbEntity
  8
7标注层
 62
     0
440
 16777216
370
    -2
100
AcDbLine
 10
2796.084776936202
 20
1411.379102069592
 30
0.0
 11
2796.084776936202
 21
1407.15765610567
 31
0.0
  0
LINE
  5
621
330
3E9
100
AcDbEntity
  8
7标注层
 62
     0
440
 16777216
370
    -2
100
AcDbLine
 10
2797.084776936202
 20
1411.379102069593
 30
0.0
 11
2797.084776936202
 21
1407.15765610567
 31
0.0
  0
LINE
  5
622
330
3E9
100
AcDbEntity
  8
7标注层
 62
     0
440
 16777216
370
    -2
100
AcDbLine
 10
2793.584776936202
 20
1408.15765610567
 30
0.0
 11
2791.084776936202
 21
1408.15765610567
 31
0.0
  0
LINE
  5
623
330
3E9
100
AcDbEntity
  8
7标注层
 62
     0
440
 16777216
370
    -2
100
AcDbLine
 10
2799.584776936202
 20
1408.15765610567
 30
0.0
 11
2811.007238474664
 21
1408.15765610567
 31
0.0
  0
SOLID
  5
624
330
3E9
100
AcDbEntity
  8
7标注层
 62
     0
440
 16777216
100
AcDbTrace
 10
2793.584776936202
 20
1408.574322772337
 30
0.0
 11
2793.584776936202
 21
1407.740989439004
 31
0.0
 12
2796.084776936202
 22
1408.15765610567
 32
0.0
 13
2796.084776936202
 23
1408.15765610567
 33
0.0
  0
SOLID
  5
625
330
3E9
100
AcDbEntity
  8
7标注层
 62
     0
440
 16777216
100
AcDbTrace
 10
2799.584776936202
 20
1408.574322772337
 30
0.0
 11
2799.584776936202
 21
1407.740989439004
 31
0.0
 12
2797.084776936202
 22
1408.15765610567
 32
0.0
 13
2797.084776936202
 23
1408.15765610567
 33
0.0
  0
MTEXT
  5
626
330
3E9
100
AcDbEntity
  8
7标注层
 62
     3
440
 16777216
100
AcDbMText
 10
2806.865392320818
 20
1409.682271490286
 30
0.0
 40
2.5
 41
0.0
 46
0.0
 71
     5
 72
     1
  1
{\H0.8x;1.0±0.2}
  7
TH-GBD2M
 73
     1
 44
1.0
  0
POINT
  5
627
330
3E9
100
AcDbEntity
  8
Defpoints
 62
     0
440
 16777216
100
AcDbPoint
 10
2796.084776936202
 20
1411.379102069592
 30
0.0
  0
POINT
  5
628
330
3E9
100
AcDbEntity
  8
Defpoints
 62
     0
440
 16777216
100
AcDbPoint
 10
2797.084776936202
 20
1411.379102069593
 30
0.0
  0
POINT
  5
629
330
3E9
100
AcDbEntity
  8
Defpoints
 62
     0
440
 16777216
100
AcDbPoint
 10
2797.084776936202
 20
1408.15765610567
 30
0.0
  0
ENDBLK
  5
3EB
330
3E9
100
AcDbEntity
  8
0
100
AcDbBlockEnd
  0
BLOCK
  5
62B
330
62A
100
AcDbEntity
  8
0
100
AcDbBlockBegin
  2
*X5
 70
     1
 10
0.0
 20
0.0
 30
0.0
  3
*X5
  1

  0
LINE
  5
62C
330
62A
100
AcDbEntity
  8
细实线层
100
AcDbLine
 10
-148.5
 20
-105.0
 30
0.0
 11
148.5
 21
-105.0
 31
0.0
  0
LINE
  5
62D
330
62A
100
AcDbEntity
  8
细实线层
100
AcDbLine
 10
148.5
 20
-105.0
 30
0.0
 11
148.5
 21
105.0
 31
0.0
  0
LINE
  5
62E
330
62A
100
AcDbEntity
  8
细实线层
100
AcDbLine
 10
148.5
 20
105.0
 30
0.0
 11
-148.5
 21
105.0
 31
0.0
  0
LINE
  5
62F
330
62A
100
AcDbEntity
  8
细实线层
100
AcDbLine
 10
-148.5
 20
105.0
 30
0.0
 11
-148.5
 21
-105.0
 31
0.0
  0
LINE
  5
630
330
62A
100
AcDbEntity
  8
粗实线层
100
AcDbLine
 10
-138.5
 20
95.0
 30
0.0
 11
-138.5
 21
-94.99999999999998
 31
0.0
  0
LINE
  5
631
330
62A
100
AcDbEntity
  8
粗实线层
100
AcDbLine
 10
-138.5
 20
-94.99999999999998
 30
0.0
 11
138.5
 21
-95.0
 31
0.0
  0
LINE
  5
632
330
62A
100
AcDbEntity
  8
粗实线层
100
AcDbLine
 10
138.5
 20
-95.0
 30
0.0
 11
138.5
 21
95.0
 31
0.0
  0
LINE
  5
633
330
62A
100
AcDbEntity
  8
粗实线层
100
AcDbLine
 10
138.5
 20
95.0
 30
0.0
 11
-138.5
 21
95.0
 31
0.0
  0
LINE
  5
634
330
62A
100
AcDbEntity
  8
粗实线层
370
    60
100
AcDbLine
 10
-148.5
 20
0.0
 30
0.0
 11
-133.5
 21
0.0
 31
0.0
  0
LINE
  5
635
330
62A
100
AcDbEntity
  8
粗实线层
370
    60
100
AcDbLine
 10
148.5
 20
0.0
 30
0.0
 11
133.5
 21
0.0
 31
0.0
  0
LINE
  5
636
330
62A
100
AcDbEntity
  8
粗实线层
370
    60
100
AcDbLine
 10
0.0
 20
105.0
 30
0.0
 11
0.0
 21
90.0
 31
0.0
  0
LINE
  5
637
330
62A
100
AcDbEntity
  8
粗实线层
370
    60
100
AcDbLine
 10
0.0
 20
-105.0
 30
0.0
 11
0.0
 21
-95.0
 31
0.0
  0
ENDBLK
  5
638
330
62A
100
AcDbEntity
  8
0
100
AcDbBlockEnd
  0
BLOCK
  5
63A
330
639
100
AcDbEntity
  8
0
100
AcDbBlockBegin
  2
*D6
 70
     1
 10
0.0
 20
0.0
 30
0.0
  3
*D6
  1

  0
LINE
  5
63B
330
639
100
AcDbEntity
  8
7标注层
 62
     0
440
 16777216
370
    -2
100
AcDbLine
 10
2777.578468637177
 20
1439.969425672903
 30
0.0
 11
2766.797360944869
 21
1439.969425672902
 31
0.0
  0
LINE
  5
63C
330
639
100
AcDbEntity
  8
7标注层
 62
     0
440
 16777216
370
    -2
100
AcDbLine
 10
2766.797360944869
 20
1439.969425672902
 30
0.0
 11
2765.861314918629
 21
1437.651276014929
 31
0.0
  0
LINE
  5
63D
330
639
100
AcDbEntity
  8
7标注层
 62
     0
440
 16777216
370
    -2
100
AcDbLine
 10
2754.628762304211
 20
1409.833479377448
 30
0.0
 11
2753.692716277971
 21
1407.515329719475
 31
0.0
  0
MTEXT
  5
63E
330
639
100
AcDbEntity
  8
7标注层
 62
     0
440
 16777216
100
AcDbMText
 10
2772.437914791023
 20
1442.360297467775
 30
0.0
 40
2.5
 41
7.202461538461538
 46
0.0
 71
     5
 72
     1
  1
{\H0.8x;∅25,00\H0.7x;\S+0.0^ -0.2;}
  7
TH-GBD2M
 73
     1
 44
1.0
  0
LINE
  5
63F
330
639
100
AcDbEntity
  8
7标注层
 62
     0
440
 16777216
370
    -2
100
AcDbLine
 10
2755.564808330452
 20
1412.151629035421
 30
0.0
 11
2764.925268892389
 21
1435.333126356957
 31
0.0
  0
SOLID
  5
640
330
639
100
AcDbEntity
  8
7标注层
 62
     0
440
 16777216
100
AcDbTrace
 10
2754.242404027882
 20
1409.989487048488
 30
0.0
 11
2755.015120580539
 21
1409.677471706408
 31
0.0
 12
2755.564808330452
 22
1412.151629035421
 32
0.0
 13
2755.564808330452
 23
1412.151629035421
 33
0.0
  0
SOLID
  5
641
330
639
100
AcDbEntity
  8
7标注层
 62
     0
440
 16777216
100
AcDbTrace
 10
2765.4749566423
 20
1437.80728368597
 30
0.0
 11
2766.247673194958
 21
1437.495268343889
 31
0.0
 12
2764.925268892389
 22
1435.333126356957
 32
0.0
 13
2764.925268892389
 23
1435.333126356957
 33
0.0
  0
POINT
  5
642
330
639
100
AcDbEntity
  8
Defpoints
 62
     0
440
 16777216
100
AcDbPoint
 10
2764.925268892389
 20
1435.333126356957
 30
0.0
  0
POINT
  5
643
330
639
100
AcDbEntity
  8
Defpoints
 62
     0
440
 16777216
100
AcDbPoint
 10
2755.564808330452
 20
1412.151629035421
 30
0.0
  0
ENDBLK
  5
644
330
639
100
AcDbEntity
  8
0
100
AcDbBlockEnd
  0
BLOCK
  5
646
330
645
100
AcDbEntity
  8
0
100
AcDbBlockBegin
  2
*D7
 70
     1
 10
0.0
 20
0.0
 30
0.0
  3
*D7
  1

  0
LINE
  5
647
330
645
100
AcDbEntity
  8
7标注层
 62
     0
440
 16777216
370
    -2
100
AcDbLine
 10
2796.084776936202
 20
1411.379102069592
 30
0.0
 11
2796.084776936202
 21
1407.15765610567
 31
0.0
  0
LINE
  5
648
330
645
100
AcDbEntity
  8
7标注层
 62
     0
440
 16777216
370
    -2
100
AcDbLine
 10
2797.084776936202
 20
1411.379102069593
 30
0.0
 11
2797.084776936202
 21
1407.15765610567
 31
0.0
  0
LINE
  5
649
330
645
100
AcDbEntity
  8
7标注层
 62
     0
440
 16777216
370
    -2
100
AcDbLine
 10
2793.584776936202
 20
1408.15765610567
 30
0.0
 11
2791.084776936202
 21
1408.15765610567
 31
0.0
  0
LINE
  5
64A
330
645
100
AcDbEntity
  8
7标注层
 62
     0
440
 16777216
370
    -2
100
AcDbLine
 10
2799.584776936202
 20
1408.15765610567
 30
0.0
 11
2811.007238474664
 21
1408.15765610567
 31
0.0
  0
SOLID
  5
64B
330
645
100
AcDbEntity
  8
7标注层
 62
     0
440
 16777216
100
AcDbTrace
 10
2793.584776936202
 20
1408.574322772337
 30
0.0
 11
2793.584776936202
 21
1407.740989439004
 31
0.0
 12
2796.084776936202
 22
1408.15765610567
 32
0.0
 13
2796.084776936202
 23
1408.15765610567
 33
0.0
  0
SOLID
  5
64C
330
645
100
AcDbEntity
  8
7标注层
 62
     0
440
 16777216
100
AcDbTrace
 10
2799.584776936202
 20
1408.574322772337
 30
0.0
 11
2799.584776936202
 21
1407.740989439004
 31
0.0
 12
2797.084776936202
 22
1408.15765610567
 32
0.0
 13
2797.084776936202
 23
1408.15765610567
 33
0.0
  0
MTEXT
  5
64D
330
645
100
AcDbEntity
  8
7标注层
 62
     3
440
 16777216
100
AcDbMText
 10
2806.865392320818
 20
1409.682271490286
 30
0.0
 40
2.5
 41
0.0
 46
0.0
 71
     5
 72
     1
  1
{\H0.8x;1.0±0.2}
  7
TH-GBD2M
 73
     1
 44
1.0
  0
POINT
  5
64E
330
645
100
AcDbEntity
  8
Defpoints
 62
     0
440
 16777216
100
AcDbPoint
 10
2796.084776936202
 20
1411.379102069592
 30
0.0
  0
POINT
  5
64F
330
645
100
AcDbEntity
  8
Defpoints
 62
     0
440
 16777216
100
AcDbPoint
 10
2797.084776936202
 20
1411.379102069593
 30
0.0
  0
POINT
  5
650
330
645
100
AcDbEntity
  8
Defpoints
 62
     0
440
 16777216
100
AcDbPoint
 10
2797.084776936202
 20
1408.15765610567
 30
0.0
  0
ENDBLK
  5
651
330
645
100
AcDbEntity
  8
0
100
AcDbBlockEnd
  0
BLOCK
  5
705
330
704
100
AcDbEntity
  8
0
100
AcDbBlockBegin
  2
*D11
 70
     1
 10
0.0
 20
0.0
 30
0.0
  3
*D11
  1

  0
LINE
  5
73C
330
704
100
AcDbEntity
  8
7标注层
 62
     0
440
 16777216
370
    -2
100
AcDbLine
 10
-62.27433115260512
 20
67.41959579322363
 30
0.0
 11
-73.05543884491282
 21
67.41959579322363
 31
0.0
  0
LINE
  5
73D
330
704
100
AcDbEntity
  8
7标注层
 62
     0
440
 16777216
370
    -2
100
AcDbLine
 10
-73.05543884491282
 20
67.41959579322363
 30
0.0
 11
-73.99148487115309
 21
65.10144613525074
 31
0.0
  0
LINE
  5
73E
330
704
100
AcDbEntity
  8
7标注层
 62
     0
440
 16777216
370
    -2
100
AcDbLine
 10
-85.22403748557072
 20
37.28364949776948
 30
0.0
 11
-86.16008351181099
 21
34.96549983979659
 31
0.0
  0
MTEXT
  5
73F
330
704
100
AcDbEntity
  8
7标注层
 62
     0
440
 16777216
100
AcDbMText
 10
-67.41488499875895
 20
69.81046758809544
 30
0.0
 40
2.5
 41
7.202461538461538
 46
0.0
 71
     5
 72
     1
  1
{\H0.8x;∅25,00\H0.7x;\S+0.0^ -0.2;}
  7
TH-GBD2M
 73
     1
 44
1.0
  0
LINE
  5
740
330
704
100
AcDbEntity
  8
7标注层
 62
     0
440
 16777216
370
    -2
100
AcDbLine
 10
-84.28799145933044
 20
39.60179915574236
 30
0.0
 11
-74.92753089739337
 21
62.78329647727787
 31
0.0
  0
SOLID
  5
741
330
704
100
AcDbEntity
  8
7标注层
 62
     0
440
 16777216
100
AcDbTrace
 10
-85.61039576189953
 20
37.43965716880953
 30
0.0
 11
-84.83767920924192
 21
37.12764182672943
 31
0.0
 12
-84.28799145933044
 22
39.60179915574236
 32
0.0
 13
-84.28799145933044
 23
39.60179915574236
 33
0.0
  0
SOLID
  5
742
330
704
100
AcDbEntity
  8
7标注层
 62
     0
440
 16777216
100
AcDbTrace
 10
-74.37784314748191
 20
65.25745380629079
 30
0.0
 11
-73.60512659482428
 21
64.9454384642107
 31
0.0
 12
-74.92753089739337
 22
62.78329647727787
 32
0.0
 13
-74.92753089739337
 23
62.78329647727787
 33
0.0
  0
POINT
  5
743
330
704
100
AcDbEntity
  8
Defpoints
 62
     0
440
 16777216
100
AcDbPoint
 10
-74.92753089739337
 20
62.78329647727787
 30
0.0
  0
POINT
  5
744
330
704
100
AcDbEntity
  8
Defpoints
 62
     0
440
 16777216
100
AcDbPoint
 10
-84.28799145933044
 20
39.60179915574236
 30
0.0
  0
ENDBLK
  5
706
330
704
100
AcDbEntity
  8
0
100
AcDbBlockEnd
  0
BLOCK
  5
711
330
710
100
AcDbEntity
  8
0
100
AcDbBlockBegin
  2
*D12
 70
     1
 10
0.0
 20
0.0
 30
0.0
  3
*D12
  1

  0
LINE
  5
745
330
710
100
AcDbEntity
  8
7标注层
 62
     0
440
 16777216
370
    -2
100
AcDbLine
 10
-43.76802285357962
 20
38.82927218991336
 30
0.0
 11
-43.76802285357962
 21
34.60782622599118
 31
0.0
  0
LINE
  5
746
330
710
100
AcDbEntity
  8
7标注层
 62
     0
440
 16777216
370
    -2
100
AcDbLine
 10
-42.76802285357962
 20
38.82927218991358
 30
0.0
 11
-42.76802285357962
 21
34.60782622599118
 31
0.0
  0
LINE
  5
747
330
710
100
AcDbEntity
  8
7标注层
 62
     0
440
 16777216
370
    -2
100
AcDbLine
 10
-46.26802285357962
 20
35.60782622599118
 30
0.0
 11
-48.76802285357962
 21
35.60782622599118
 31
0.0
  0
LINE
  5
748
330
710
100
AcDbEntity
  8
7标注层
 62
     0
440
 16777216
370
    -2
100
AcDbLine
 10
-40.26802285357962
 20
35.60782622599118
 30
0.0
 11
-28.84556131511804
 21
35.60782622599118
 31
0.0
  0
SOLID
  5
749
330
710
100
AcDbEntity
  8
7标注层
 62
     0
440
 16777216
100
AcDbTrace
 10
-46.26802285357962
 20
36.02449289265784
 30
0.0
 11
-46.26802285357962
 21
35.19115955932451
 31
0.0
 12
-43.76802285357962
 22
35.60782622599118
 32
0.0
 13
-43.76802285357962
 23
35.60782622599118
 33
0.0
  0
SOLID
  5
74A
330
710
100
AcDbEntity
  8
7标注层
 62
     0
440
 16777216
100
AcDbTrace
 10
-40.26802285357962
 20
36.02449289265784
 30
0.0
 11
-40.26802285357962
 21
35.19115955932451
 31
0.0
 12
-42.76802285357962
 22
35.60782622599118
 32
0.0
 13
-42.76802285357962
 23
35.60782622599118
 33
0.0
  0
MTEXT
  5
74B
330
710
100
AcDbEntity
  8
7标注层
 62
     3
440
 16777216
100
AcDbMText
 10
-32.98740746896419
 20
37.13244161060656
 30
0.0
 40
2.5
 41
0.0
 46
0.0
 71
     5
 72
     1
  1
{\H0.8x;1.0±0.2}
  7
TH-GBD2M
 73
     1
 44
1.0
  0
POINT
  5
74C
330
710
100
AcDbEntity
  8
Defpoints
 62
     0
440
 16777216
100
AcDbPoint
 10
-43.76802285357962
 20
38.82927218991336
 30
0.0
  0
POINT
  5
74D
330
710
100
AcDbEntity
  8
Defpoints
 62
     0
440
 16777216
100
AcDbPoint
 10
-42.76802285357962
 20
38.82927218991358
 30
0.0
  0
POINT
  5
74E
330
710
100
AcDbEntity
  8
Defpoints
 62
     0
440
 16777216
100
AcDbPoint
 10
-42.76802285357962
 20
35.60782622599118
 30
0.0
  0
ENDBLK
  5
712
330
710
100
AcDbEntity
  8
0
100
AcDbBlockEnd
  0
BLOCK
  5
758
330
757
100
AcDbEntity
  8
0
100
AcDbBlockBegin
  2
*X13
 70
     1
 10
0.0
 20
0.0
 30
0.0
  3
*X13
  1

  0
LINE
  5
759
330
757
100
AcDbEntity
  8
细实线层
100
AcDbLine
 10
-148.5
 20
-105.0
 30
0.0
 11
148.5
 21
-105.0
 31
0.0
  0
LINE
  5
75A
330
757
100
AcDbEntity
  8
细实线层
100
AcDbLine
 10
148.5
 20
-105.0
 30
0.0
 11
148.5
 21
105.0
 31
0.0
  0
LINE
  5
75B
330
757
100
AcDbEntity
  8
细实线层
100
AcDbLine
 10
148.5
 20
105.0
 30
0.0
 11
-148.5
 21
105.0
 31
0.0
  0
LINE
  5
75C
330
757
100
AcDbEntity
  8
细实线层
100
AcDbLine
 10
-148.5
 20
105.0
 30
0.0
 11
-148.5
 21
-105.0
 31
0.0
  0
LINE
  5
75D
330
757
100
AcDbEntity
  8
粗实线层
100
AcDbLine
 10
-138.5
 20
95.0
 30
0.0
 11
-138.5
 21
-95.0
 31
0.0
  0
LINE
  5
75E
330
757
100
AcDbEntity
  8
粗实线层
100
AcDbLine
 10
-138.5
 20
-95.0
 30
0.0
 11
138.5
 21
-95.0
 31
0.0
  0
LINE
  5
75F
330
757
100
AcDbEntity
  8
粗实线层
100
AcDbLine
 10
138.5
 20
-95.0
 30
0.0
 11
138.5
 21
95.0
 31
0.0
  0
LINE
  5
760
330
757
100
AcDbEntity
  8
粗实线层
100
AcDbLine
 10
138.5
 20
95.0
 30
0.0
 11
-138.5
 21
95.0
 31
0.0
  0
LINE
  5
761
330
757
100
AcDbEntity
  8
粗实线层
370
    60
100
AcDbLine
 10
-148.5
 20
0.0
 30
0.0
 11
-133.5
 21
0.0
 31
0.0
  0
LINE
  5
762
330
757
100
AcDbEntity
  8
粗实线层
370
    60
100
AcDbLine
 10
148.5
 20
0.0
 30
0.0
 11
133.5
 21
0.0
 31
0.0
  0
LINE
  5
763
330
757
100
AcDbEntity
  8
粗实线层
370
    60
100
AcDbLine
 10
0.0
 20
105.0
 30
0.0
 11
0.0
 21
90.0
 31
0.0
  0
LINE
  5
764
330
757
100
AcDbEntity
  8
粗实线层
370
    60
100
AcDbLine
 10
0.0
 20
-105.0
 30
0.0
 11
0.0
 21
-95.0
 31
0.0
  0
ENDBLK
  5
765
330
757
100
AcDbEntity
  8
0
100
AcDbBlockEnd
  0
BLOCK
  5
767
330
766
100
AcDbEntity
  8
0
100
AcDbBlockBegin
  2
*T14
 70
     1
 10
0.0
 20
0.0
 30
0.0
  3
*T14
  1

  0
MTEXT
  5
768
330
766
100
AcDbEntity
  8
2细线层
 62
     3
440
 16777216
100
AcDbMText
 10
60.64999999999999
 20
-3.166666666666664
 30
0.0
 40
2.5
 41
33.0
 46
0.0
 71
     5
 72
     5
  1
{\fSimSun|b1|i0|c134|p34;S1}
  7
表格
 73
     1
 44
1.0
  0
MTEXT
  5
769
330
766
100
AcDbEntity
  8
2细线层
 62
     3
440
 16777216
100
AcDbMText
 10
96.64999999999999
 20
-3.166666666666664
 30
0.0
 40
2.5
 41
33.0
 46
0.0
 71
     5
 72
     5
  1
{\fSimSun|b1|i0|c134|p34;S2}
  7
表格
 73
     1
 44
1.0
  0
MTEXT
  5
76A
330
766
100
AcDbEntity
  8
2细线层
 62
     3
440
 16777216
100
AcDbMText
 10
21.325
 20
-9.5
 30
0.0
 40
2.5
 41
39.64999999999999
 46
0.0
 71
     5
 72
     5
  1
{\fSimSun|b1|i0|c134|p34;形状}
  7
表格
 73
     1
 44
1.0
  0
MTEXT
  5
76B
330
766
100
AcDbEntity
  8
2细线层
 62
     3
440
 16777216
100
AcDbMText
 10
60.64999999999999
 20
-9.5
 30
0.0
 40
2.5
 41
33.0
 46
0.0
 71
     5
 72
     5
  1
{\fSimSun|b1|i0|c134|p34;平面}
  7
表格
 73
     1
 44
1.0
  0
MTEXT
  5
76C
330
766
100
AcDbEntity
  8
2细线层
 62
     3
440
 16777216
100
AcDbMText
 10
96.64999999999999
 20
-9.5
 30
0.0
 40
2.5
 41
33.0
 46
0.0
 71
     5
 72
     5
  1
{\fSimSun|b1|i0|c134|p34;平面}
  7
表格
 73
     1
 44
1.0
  0
MTEXT
  5
76D
330
766
100
AcDbEntity
  8
2细线层
 62
     3
440
 16777216
100
AcDbMText
 10
21.325
 20
-15.83333333333333
 30
0.0
 40
2.5
 41
39.64999999999999
 46
0.0
 71
     5
 72
     5
  1
{\fSimSun|b1|i0|c134|p34;光洁度}
  7
表格
 73
     1
 44
1.0
  0
MTEXT
  5
76E
330
766
100
AcDbEntity
  8
2细线层
 62
     3
440
 16777216
100
AcDbMText
 10
60.64999999999999
 20
-15.83333333333333
 30
0.0
 40
2.5
 41
33.0
 46
0.0
 71
     5
 72
     5
  1
{\fSimSun|b1|i0|c134|p34;80-50}
  7
表格
 73
     1
 44
1.0
  0
MTEXT
  5
76F
330
766
100
AcDbEntity
  8
2细线层
 62
     3
440
 16777216
100
AcDbMText
 10
96.64999999999999
 20
-15.83333333333333
 30
0.0
 40
2.5
 41
33.0
 46
0.0
 71
     5
 72
     5
  1
{\fSimSun|b1|i0|c134|p34;80-50}
  7
表格
 73
     1
 44
1.0
  0
MTEXT
  5
770
330
766
100
AcDbEntity
  8
2细线层
 62
     3
440
 16777216
100
AcDbMText
 10
21.325
 20
-22.16666666666666
 30
0.0
 40
2.5
 41
39.64999999999999
 46
0.0
 71
     5
 72
     5
  1
{\fSimSun|b1|i0|c134|p34;通光口径}
  7
表格
 73
     1
 44
1.0
  0
MTEXT
  5
771
330
766
100
AcDbEntity
  8
2细线层
 62
     3
440
 16777216
100
AcDbMText
 10
60.64999999999999
 20
-22.16666666666666
 30
0.0
 40
2.5
 41
33.0
 46
0.0
 71
     5
 72
     5
  1
{\fSimSun|b1|i0|c134|p34;90%}
  7
表格
 73
     1
 44
1.0
  0
MTEXT
  5
772
330
766
100
AcDbEntity
  8
2细线层
 62
     3
440
 16777216
100
AcDbMText
 10
96.64999999999999
 20
-22.16666666666666
 30
0.0
 40
2.5
 41
33.0
 46
0.0
 71
     5
 72
     5
  1
{\fSimSun|b1|i0|c134|p34;90%}
  7
表格
 73
     1
 44
1.0
  0
LINE
  5
773
330
766
100
AcDbEntity
  8
2细线层
  6
ByBlock
 62
     0
440
 16777216
370
    -2
100
AcDbLine
 10
0.0
 20
0.0
 30
0.0
 11
114.65
 21
0.0
 31
0.0
  0
LINE
  5
774
330
766
100
AcDbEntity
  8
2细线层
  6
ByBlock
 62
     0
440
 16777216
370
    -2
100
AcDbLine
 10
0.0
 20
-6.333333333333332
 30
0.0
 11
114.65
 21
-6.333333333333332
 31
0.0
  0
LINE
  5
775
330
766
100
AcDbEntity
  8
2细线层
  6
ByBlock
 62
     0
440
 16777216
370
    -2
100
AcDbLine
 10
0.0
 20
-12.66666666666666
 30
0.0
 11
114.65
 21
-12.66666666666666
 31
0.0
  0
LINE
  5
776
330
766
100
AcDbEntity
  8
2细线层
  6
ByBlock
 62
     0
440
 16777216
370
    -2
100
AcDbLine
 10
0.0
 20
-19.0
 30
0.0
 11
114.65
 21
-19.0
 31
0.0
  0
LINE
  5
777
330
766
100
AcDbEntity
  8
2细线层
  6
ByBlock
 62
     0
440
 16777216
370
    -2
100
AcDbLine
 10
0.0
 20
-25.33333333333333
 30
0.0
 11
114.65
 21
-25.33333333333333
 31
0.0
  0
LINE
  5
778
330
766
100
AcDbEntity
  8
2细线层
  6
ByBlock
 62
     0
440
 16777216
370
    -2
100
AcDbLine
 10
0.0
 20
0.0
 30
0.0
 11
0.0
 21
-25.33333333333333
 31
0.0
  0
LINE
  5
779
330
766
100
AcDbEntity
  8
2细线层
  6
ByBlock
 62
     0
440
 16777216
370
    -2
100
AcDbLine
 10
42.64999999999999
 20
0.0
 30
0.0
 11
42.64999999999999
 21
-25.33333333333333
 31
0.0
  0
LINE
  5
77A
330
766
100
AcDbEntity
  8
2细线层
  6
ByBlock
 62
     0
440
 16777216
370
    -2
100
AcDbLine
 10
78.64999999999999
 20
0.0
 30
0.0
 11
78.64999999999999
 21
-25.33333333333333
 31
0.0
  0
LINE
  5
77B
330
766
100
AcDbEntity
  8
2细线层
  6
ByBlock
 62
     0
440
 16777216
370
    -2
100
AcDbLine
 10
114.65
 20
0.0
 30
0.0
 11
114.65
 21
-25.33333333333333
 31
0.0
  0
LINE
  5
77C
330
766
100
AcDbEntity
  8
Defpoints
 62
     8
440
 16777216
 60
     1
370
     0
100
AcDbLine
 10
0.0
 20
0.0
 30
0.0
 11
0.0
 21
0.0
 31
0.0
  0
ENDBLK
  5
77D
330
766
100
AcDbEntity
  8
0
100
AcDbBlockEnd
  0
BLOCK
  5
77F
330
77E
100
AcDbEntity
  8
0
100
AcDbBlockBegin
  2
*U15
 70
     1
 10
0.0
 20
0.0
 30
0.0
  3
*U15
  1

  0
LINE
  5
780
330
77E
100
AcDbEntity
  8
3中心线层
  6
Continuous
 62
     0
440
 16777216
100
AcDbLine
 10
-3.75
 20
0.0
 30
0.0
 11
3.75
 21
0.0
 31
0.0
  0
LINE
  5
781
330
77E
100
AcDbEntity
  8
3中心线层
  6
Continuous
 62
     0
440
 16777216
100
AcDbLine
 10
0.0
 20
-3.75
 30
0.0
 11
0.0
 21
3.75
 31
0.0
  0
LINE
  5
782
330
77E
100
AcDbEntity
  8
3中心线层
  6
CENTER2
 62
     0
440
 16777216
100
AcDbLine
 10
-41.0
 20
0.0
 30
0.0
 11
-7.5
 21
0.0
 31
0.0
  0
LINE
  5
783
330
77E
100
AcDbEntity
  8
3中心线层
  6
CENTER2
 62
     0
440
 16777216
100
AcDbLine
 10
7.5
 20
0.0
 30
0.0
 11
41.0
 21
0.0
 31
0.0
  0
LINE
  5
784
330
77E
100
AcDbEntity
  8
3中心线层
  6
CENTER2
 62
     0
440
 16777216
100
AcDbLine
 10
0.0
 20
-41.0
 30
0.0
 11
0.0
 21
-7.5
 31
0.0
  0
LINE
  5
785
330
77E
100
AcDbEntity
  8
3中心线层
  6
CENTER2
 62
     0
440
 16777216
100
AcDbLine
 10
0.0
 20
7.5
 30
0.0
 11
0.0
 21
41.0
 31
0.0
  0
ENDBLK
  5
786
330
77E
100
AcDbEntity
  8
0
100
AcDbBlockEnd
  0
BLOCK
  5
788
330
787
100
AcDbEntity
  8
0
100
AcDbBlockBegin
  2
*U16
 70
     1
 10
0.0
 20
0.0
 30
0.0
  3
*U16
  1

  0
LINE
  5
789
330
787
100
AcDbEntity
  8
3中心线层
  6
CENTER2
 62
     0
440
 16777216
100
AcDbLine
 10
-4.400000000000034
 20
0.0
 30
0.0
 11
4.400000000000034
 21
0.0
 31
0.0
  0
ENDBLK
  5
78A
330
787
100
AcDbEntity
  8
0
100
AcDbBlockEnd
  0
BLOCK
  5
78C
330
78B
100
AcDbEntity
  8
0
100
AcDbBlockBegin
  2
*D17
 70
     1
 10
0.0
 20
0.0
 30
0.0
  3
*D17
  1

  0
LINE
  5
78D
330
78B
100
AcDbEntity
  8
7标注层
440
 16777216
370
    -2
100
AcDbLine
 10
210.6795369205339
 20
170.1076268385467
 30
0.0
 11
195.7859215359184
 21
170.1076268385467
 31
0.0
  0
LINE
  5
78E
330
78B
100
AcDbEntity
  8
7标注层
440
 16777216
370
    -2
100
AcDbLine
 10
195.7859215359184
 20
170.1076268385467
 30
0.0
 11
185.8668256067272
 21
159.0623619685277
 31
0.0
  0
LINE
  5
78F
330
78B
100
AcDbEntity
  8
7标注层
440
 16777216
370
    -2
100
AcDbLine
 10
130.4096373694243
 20
97.30881735113491
 30
0.0
 11
127.737001791723
 21
94.33274291174248
 31
0.0
  0
MTEXT
  5
790
330
78B
100
AcDbEntity
  8
7标注层
 62
     3
440
 16777216
100
AcDbMText
 10
203.5452292282262
 20
173.0385242744442
 30
0.0
 40
2.5
 41
0.0
 46
0.0
 71
     5
 72
     1
  1
%%C25.00 {\H0.7x;\S 0.00^ -0.20;}
  7
TH-GBD2M
 73
     1
 44
1.0
  0
LINE
  5
791
330
78B
100
AcDbEntity
  8
7标注层
440
 16777216
370
    -2
100
AcDbLine
 10
133.0822729471256
 20
100.2848917905273
 30
0.0
 11
183.1941900290258
 21
156.0862875291353
 31
0.0
  0
SOLID
  5
792
330
78B
100
AcDbEntity
  8
7标注层
440
 16777216
100
AcDbTrace
 10
129.9136249628589
 20
97.75425661408513
 30
0.0
 11
130.9056497759897
 21
96.86337808818469
 31
0.0
 12
133.0822729471256
 22
100.2848917905273
 32
0.0
 13
133.0822729471256
 23
100.2848917905273
 33
0.0
  0
SOLID
  5
793
330
78B
100
AcDbEntity
  8
7标注层
440
 16777216
100
AcDbTrace
 10
185.3708132001617
 20
159.507801231478
 30
0.0
 11
186.3628380132926
 21
158.6169227055775
 31
0.0
 12
183.1941900290258
 22
156.0862875291353
 32
0.0
 13
183.1941900290258
 23
156.0862875291353
 33
0.0
  0
POINT
  5
794
330
78B
100
AcDbEntity
  8
Defpoints
 62
     0
440
 16777216
100
AcDbPoint
 10
183.1941900290258
 20
156.0862875291353
 30
0.0
  0
POINT
  5
795
330
78B
100
AcDbEntity
  8
Defpoints
 62
     0
440
 16777216
100
AcDbPoint
 10
133.0822729471256
 20
100.2848917905273
 30
0.0
  0
ENDBLK
  5
796
330
78B
100
AcDbEntity
  8
0
100
AcDbBlockEnd
  0
BLOCK
  5
798
330
797
100
AcDbEntity
  8
0
100
AcDbBlockBegin
  2
*D18
 70
     1
 10
0.0
 20
0.0
 30
0.0
  3
*D18
  1

  0
LINE
  5
799
330
797
100
AcDbEntity
  8
7标注层
 62
     0
440
 16777216
370
    -2
100
AcDbLine
 10
246.1916770325756
 20
91.28558965983129
 30
0.0
 11
246.1916770325756
 21
82.7973672570256
 31
0.0
  0
LINE
  5
79A
330
797
100
AcDbEntity
  8
7标注层
 62
     0
440
 16777216
370
    -2
100
AcDbLine
 10
243.1916770325756
 20
91.28558965983129
 30
0.0
 11
243.1916770325756
 21
82.7973672570256
 31
0.0
  0
LINE
  5
79B
330
797
100
AcDbEntity
  8
7标注层
 62
     0
440
 16777216
370
    -2
100
AcDbLine
 10
250.1916770325756
 20
84.7973672570256
 30
0.0
 11
254.1916770325756
 21
84.7973672570256
 31
0.0
  0
LINE
  5
79C
330
797
100
AcDbEntity
  8
7标注层
 62
     0
440
 16777216
370
    -2
100
AcDbLine
 10
239.1916770325756
 20
84.7973672570256
 30
0.0
 11
221.4239847248833
 21
84.7973672570256
 31
0.0
  0
SOLID
  5
79D
330
797
100
AcDbEntity
  8
7标注层
 62
     0
440
 16777216
100
AcDbTrace
 10
250.1916770325756
 20
85.46403392369226
 30
0.0
 11
250.1916770325756
 21
84.13070059035893
 31
0.0
 12
246.1916770325756
 22
84.7973672570256
 32
0.0
 13
246.1916770325756
 23
84.7973672570256
 33
0.0
  0
SOLID
  5
79E
330
797
100
AcDbEntity
  8
7标注层
 62
     0
440
 16777216
100
AcDbTrace
 10
239.1916770325756
 20
85.46403392369226
 30
0.0
 11
239.1916770325756
 21
84.13070059035893
 31
0.0
 12
243.1916770325756
 22
84.7973672570256
 32
0.0
 13
243.1916770325756
 23
84.7973672570256
 33
0.0
  0
MTEXT
  5
79F
330
797
100
AcDbEntity
  8
7标注层
 62
     3
440
 16777216
100
AcDbMText
 10
228.3078308787295
 20
87.57813648779483
 30
0.0
 40
2.5
 41
0.0
 46
0.0
 71
     5
 72
     1
  1
\A1;1.0%%P0.20
  7
TH-GBD2M
 73
     1
 44
1.0
  0
POINT
  5
7A0
330
797
100
AcDbEntity
  8
Defpoints
 62
     0
440
 16777216
100
AcDbPoint
 10
246.1916770325756
 20
91.28558965983129
 30
0.0
  0
POINT
  5
7A1
330
797
100
AcDbEntity
  8
Defpoints
 62
     0
440
 16777216
100
AcDbPoint
 10
243.1916770325756
 20
91.28558965983129
 30
0.0
  0
POINT
  5
7A2
330
797
100
AcDbEntity
  8
Defpoints
 62
     0
440
 16777216
100
AcDbPoint
 10
243.1916770325756
 20
84.7973672570256
 30
0.0
  0
ENDBLK
  5
7A3
330
797
100
AcDbEntity
  8
0
100
AcDbBlockEnd
  0
BLOCK
  5
84F
330
84E
100
AcDbEntity
  8
0
100
AcDbBlockBegin
  2
*U22
 70
     1
 10
0.0
 20
0.0
 30
0.0
  3
*U22
  1

  0
LINE
  5
850
330
84E
100
AcDbEntity
  8
3中心线层
  6
Continuous
 62
     0
440
 16777216
100
AcDbLine
 10
-3.75
 20
0.0
 30
0.0
 11
3.75
 21
0.0
 31
0.0
  0
LINE
  5
851
330
84E
100
AcDbEntity
  8
3中心线层
  6
Continuous
 62
     0
440
 16777216
100
AcDbLine
 10
0.0
 20
-3.75
 30
0.0
 11
0.0
 21
3.75
 31
0.0
  0
LINE
  5
852
330
84E
100
AcDbEntity
  8
3中心线层
  6
CENTER2
 62
     0
440
 16777216
100
AcDbLine
 10
-41.0
 20
0.0
 30
0.0
 11
-7.5
 21
0.0
 31
0.0
  0
LINE
  5
853
330
84E
100
AcDbEntity
  8
3中心线层
  6
CENTER2
 62
     0
440
 16777216
100
AcDbLine
 10
7.5
 20
0.0
 30
0.0
 11
41.0
 21
0.0
 31
0.0
  0
LINE
  5
854
330
84E
100
AcDbEntity
  8
3中心线层
  6
CENTER2
 62
     0
440
 16777216
100
AcDbLine
 10
0.0
 20
-41.0
 30
0.0
 11
0.0
 21
-7.5
 31
0.0
  0
LINE
  5
855
330
84E
100
AcDbEntity
  8
3中心线层
  6
CENTER2
 62
     0
440
 16777216
100
AcDbLine
 10
0.0
 20
7.5
 30
0.0
 11
0.0
 21
41.0
 31
0.0
  0
ENDBLK
  5
856
330
84E
100
AcDbEntity
  8
0
100
AcDbBlockEnd
  0
BLOCK
  5
858
330
857
100
AcDbEntity
  8
0
100
AcDbBlockBegin
  2
*U23
 70
     1
 10
0.0
 20
0.0
 30
0.0
  3
*U23
  1

  0
LINE
  5
859
330
857
100
AcDbEntity
  8
3中心线层
  6
CENTER2
 62
     0
440
 16777216
100
AcDbLine
 10
-4.400000000000034
 20
0.0
 30
0.0
 11
4.400000000000034
 21
0.0
 31
0.0
  0
ENDBLK
  5
85A
330
857
100
AcDbEntity
  8
0
100
AcDbBlockEnd
  0
BLOCK
  5
871
330
85B
100
AcDbEntity
  8
0
100
AcDbBlockBegin
  2
*T24
 70
     1
 10
0.0
 20
0.0
 30
0.0
  3
*T24
  1

  0
MTEXT
  5
85C
330
85B
100
AcDbEntity
  8
2细线层
 62
     3
440
 16777216
100
AcDbMText
 10
60.64999999999999
 20
-3.166666666666664
 30
0.0
 40
2.5
 41
33.0
 46
0.0
 71
     5
 72
     5
  1
{\fSimSun|b1|i0|c134|p34;S1}
  7
表格
 73
     1
 44
1.0
  0
MTEXT
  5
85D
330
85B
100
AcDbEntity
  8
2细线层
 62
     3
440
 16777216
100
AcDbMText
 10
96.64999999999999
 20
-3.166666666666664
 30
0.0
 40
2.5
 41
33.0
 46
0.0
 71
     5
 72
     5
  1
{\fSimSun|b1|i0|c134|p34;S2}
  7
表格
 73
     1
 44
1.0
  0
MTEXT
  5
85E
330
85B
100
AcDbEntity
  8
2细线层
 62
     3
440
 16777216
100
AcDbMText
 10
21.325
 20
-9.5
 30
0.0
 40
2.5
 41
39.64999999999999
 46
0.0
 71
     5
 72
     5
  1
{\fSimSun|b1|i0|c134|p34;形状}
  7
表格
 73
     1
 44
1.0
  0
MTEXT
  5
85F
330
85B
100
AcDbEntity
  8
2细线层
 62
     3
440
 16777216
100
AcDbMText
 10
60.64999999999999
 20
-9.5
 30
0.0
 40
2.5
 41
33.0
 46
0.0
 71
     5
 72
     5
  1
{\fSimSun|b1|i0|c134|p34;平面}
  7
表格
 73
     1
 44
1.0
  0
MTEXT
  5
860
330
85B
100
AcDbEntity
  8
2细线层
 62
     3
440
 16777216
100
AcDbMText
 10
96.64999999999999
 20
-9.5
 30
0.0
 40
2.5
 41
33.0
 46
0.0
 71
     5
 72
     5
  1
{\fSimSun|b1|i0|c134|p34;平面}
  7
表格
 73
     1
 44
1.0
  0
MTEXT
  5
861
330
85B
100
AcDbEntity
  8
2细线层
 62
     3
440
 16777216
100
AcDbMText
 10
21.325
 20
-15.83333333333333
 30
0.0
 40
2.5
 41
39.64999999999999
 46
0.0
 71
     5
 72
     5
  1
{\fSimSun|b1|i0|c134|p34;光洁度}
  7
表格
 73
     1
 44
1.0
  0
MTEXT
  5
862
330
85B
100
AcDbEntity
  8
2细线层
 62
     3
440
 16777216
100
AcDbMText
 10
60.64999999999999
 20
-15.83333333333333
 30
0.0
 40
2.5
 41
33.0
 46
0.0
 71
     5
 72
     5
  1
{\fSimSun|b1|i0|c134|p34;80-50}
  7
表格
 73
     1
 44
1.0
  0
MTEXT
  5
863
330
85B
100
AcDbEntity
  8
2细线层
 62
     3
440
 16777216
100
AcDbMText
 10
96.64999999999999
 20
-15.83333333333333
 30
0.0
 40
2.5
 41
33.0
 46
0.0
 71
     5
 72
     5
  1
{\fSimSun|b1|i0|c134|p34;80-50}
  7
表格
 73
     1
 44
1.0
  0
MTEXT
  5
864
330
85B
100
AcDbEntity
  8
2细线层
 62
     3
440
 16777216
100
AcDbMText
 10
21.325
 20
-22.16666666666666
 30
0.0
 40
2.5
 41
39.64999999999999
 46
0.0
 71
     5
 72
     5
  1
{\fSimSun|b1|i0|c134|p34;通光口径}
  7
表格
 73
     1
 44
1.0
  0
MTEXT
  5
865
330
85B
100
AcDbEntity
  8
2细线层
 62
     3
440
 16777216
100
AcDbMText
 10
60.64999999999999
 20
-22.16666666666666
 30
0.0
 40
2.5
 41
33.0
 46
0.0
 71
     5
 72
     5
  1
{\fSimSun|b1|i0|c134|p34;90%}
  7
表格
 73
     1
 44
1.0
  0
MTEXT
  5
866
330
85B
100
AcDbEntity
  8
2细线层
 62
     3
440
 16777216
100
AcDbMText
 10
96.64999999999999
 20
-22.16666666666666
 30
0.0
 40
2.5
 41
33.0
 46
0.0
 71
     5
 72
     5
  1
{\fSimSun|b1|i0|c134|p34;90%}
  7
表格
 73
     1
 44
1.0
  0
LINE
  5
867
330
85B
100
AcDbEntity
  8
2细线层
  6
ByBlock
 62
     0
440
 16777216
370
    -2
100
AcDbLine
 10
0.0
 20
0.0
 30
0.0
 11
114.65
 21
0.0
 31
0.0
  0
LINE
  5
868
330
85B
100
AcDbEntity
  8
2细线层
  6
ByBlock
 62
     0
440
 16777216
370
    -2
100
AcDbLine
 10
0.0
 20
-6.333333333333332
 30
0.0
 11
114.65
 21
-6.333333333333332
 31
0.0
  0
LINE
  5
869
330
85B
100
AcDbEntity
  8
2细线层
  6
ByBlock
 62
     0
440
 16777216
370
    -2
100
AcDbLine
 10
0.0
 20
-12.66666666666666
 30
0.0
 11
114.65
 21
-12.66666666666666
 31
0.0
  0
LINE
  5
86A
330
85B
100
AcDbEntity
  8
2细线层
  6
ByBlock
 62
     0
440
 16777216
370
    -2
100
AcDbLine
 10
0.0
 20
-19.0
 30
0.0
 11
114.65
 21
-19.0
 31
0.0
  0
LINE
  5
86B
330
85B
100
AcDbEntity
  8
2细线层
  6
ByBlock
 62
     0
440
 16777216
370
    -2
100
AcDbLine
 10
0.0
 20
-25.33333333333333
 30
0.0
 11
114.65
 21
-25.33333333333333
 31
0.0
  0
LINE
  5
86C
330
85B
100
AcDbEntity
  8
2细线层
  6
ByBlock
 62
     0
440
 16777216
370
    -2
100
AcDbLine
 10
0.0
 20
0.0
 30
0.0
 11
0.0
 21
-25.33333333333333
 31
0.0
  0
LINE
  5
86D
330
85B
100
AcDbEntity
  8
2细线层
  6
ByBlock
 62
     0
440
 16777216
370
    -2
100
AcDbLine
 10
42.64999999999999
 20
0.0
 30
0.0
 11
42.64999999999999
 21
-25.33333333333333
 31
0.0
  0
LINE
  5
86E
330
85B
100
AcDbEntity
  8
2细线层
  6
ByBlock
 62
     0
440
 16777216
370
    -2
100
AcDbLine
 10
78.64999999999999
 20
0.0
 30
0.0
 11
78.64999999999999
 21
-25.33333333333333
 31
0.0
  0
LINE
  5
86F
330
85B
100
AcDbEntity
  8
2细线层
  6
ByBlock
 62
     0
440
 16777216
370
    -2
100
AcDbLine
 10
114.65
 20
0.0
 30
0.0
 11
114.65
 21
-25.33333333333333
 31
0.0
  0
LINE
  5
870
330
85B
100
AcDbEntity
  8
Defpoints
 62
     8
440
 16777216
 60
     1
370
     0
100
AcDbLine
 10
0.0
 20
0.0
 30
0.0
 11
0.0
 21
0.0
 31
0.0
  0
ENDBLK
  5
872
330
85B
100
AcDbEntity
  8
0
100
AcDbBlockEnd
  0
BLOCK
  5
876
330
875
100
AcDbEntity
  8
0
100
AcDbBlockBegin
  2
*D25
 70
     1
 10
0.0
 20
0.0
 30
0.0
  3
*D25
  1

  0
LINE
  5
88E
330
875
100
AcDbEntity
  8
7标注层
440
 16777216
370
    -2
100
AcDbLine
 10
210.6795369205339
 20
170.1076268385467
 30
0.0
 11
195.7859215359184
 21
170.1076268385467
 31
0.0
  0
LINE
  5
88F
330
875
100
AcDbEntity
  8
7标注层
440
 16777216
370
    -2
100
AcDbLine
 10
195.7859215359184
 20
170.1076268385467
 30
0.0
 11
185.8668256067272
 21
159.0623619685277
 31
0.0
  0
LINE
  5
890
330
875
100
AcDbEntity
  8
7标注层
440
 16777216
370
    -2
100
AcDbLine
 10
130.4096373694243
 20
97.30881735113497
 30
0.0
 11
127.7370017917229
 21
94.33274291174251
 31
0.0
  0
MTEXT
  5
891
330
875
100
AcDbEntity
  8
7标注层
 62
     3
440
 16777216
100
AcDbMText
 10
203.5452292282262
 20
173.0385242744441
 30
0.0
 40
2.5
 41
0.0
 46
0.0
 71
     5
 72
     1
  1
%%C25.00 {\H0.7x;\S 0.00^ -0.20;}
  7
TH-GBD2M
 73
     1
 44
1.0
  0
LINE
  5
892
330
875
100
AcDbEntity
  8
7标注层
440
 16777216
370
    -2
100
AcDbLine
 10
133.0822729471256
 20
100.2848917905273
 30
0.0
 11
183.1941900290259
 21
156.0862875291353
 31
0.0
  0
SOLID
  5
893
330
875
100
AcDbEntity
  8
7标注层
440
 16777216
100
AcDbTrace
 10
129.9136249628589
 20
97.75425661408519
 30
0.0
 11
130.9056497759897
 21
96.86337808818473
 31
0.0
 12
133.0822729471256
 22
100.2848917905273
 32
0.0
 13
133.0822729471256
 23
100.2848917905273
 33
0.0
  0
SOLID
  5
894
330
875
100
AcDbEntity
  8
7标注层
440
 16777216
100
AcDbTrace
 10
185.3708132001618
 20
159.5078012314779
 30
0.0
 11
186.3628380132926
 21
158.6169227055775
 31
0.0
 12
183.1941900290259
 22
156.0862875291353
 32
0.0
 13
183.1941900290259
 23
156.0862875291353
 33
0.0
  0
POINT
  5
895
330
875
100
AcDbEntity
  8
Defpoints
 62
     0
440
 16777216
100
AcDbPoint
 10
183.1941900290259
 20
156.0862875291353
 30
0.0
  0
POINT
  5
896
330
875
100
AcDbEntity
  8
Defpoints
 62
     0
440
 16777216
100
AcDbPoint
 10
133.0822729471256
 20
100.2848917905273
 30
0.0
  0
ENDBLK
  5
877
330
875
100
AcDbEntity
  8
0
100
AcDbBlockEnd
  0
BLOCK
  5
882
330
881
100
AcDbEntity
  8
0
100
AcDbBlockBegin
  2
*D26
 70
     1
 10
0.0
 20
0.0
 30
0.0
  3
*D26
  1

  0
LINE
  5
884
330
881
100
AcDbEntity
  8
7标注层
 62
     0
440
 16777216
370
    -2
100
AcDbLine
 10
246.1916770325756
 20
91.28558965983129
 30
0.0
 11
246.1916770325756
 21
82.7973672570256
 31
0.0
  0
LINE
  5
885
330
881
100
AcDbEntity
  8
7标注层
 62
     0
440
 16777216
370
    -2
100
AcDbLine
 10
243.1916770325756
 20
91.28558965983129
 30
0.0
 11
243.1916770325756
 21
82.7973672570256
 31
0.0
  0
LINE
  5
886
330
881
100
AcDbEntity
  8
7标注层
 62
     0
440
 16777216
370
    -2
100
AcDbLine
 10
250.1916770325756
 20
84.7973672570256
 30
0.0
 11
254.1916770325756
 21
84.7973672570256
 31
0.0
  0
LINE
  5
887
330
881
100
AcDbEntity
  8
7标注层
 62
     0
440
 16777216
370
    -2
100
AcDbLine
 10
239.1916770325756
 20
84.7973672570256
 30
0.0
 11
221.4239847248833
 21
84.7973672570256
 31
0.0
  0
SOLID
  5
888
330
881
100
AcDbEntity
  8
7标注层
 62
     0
440
 16777216
100
AcDbTrace
 10
250.1916770325756
 20
85.46403392369226
 30
0.0
 11
250.1916770325756
 21
84.13070059035893
 31
0.0
 12
246.1916770325756
 22
84.7973672570256
 32
0.0
 13
246.1916770325756
 23
84.7973672570256
 33
0.0
  0
SOLID
  5
889
330
881
100
AcDbEntity
  8
7标注层
 62
     0
440
 16777216
100
AcDbTrace
 10
239.1916770325756
 20
85.46403392369226
 30
0.0
 11
239.1916770325756
 21
84.13070059035893
 31
0.0
 12
243.1916770325756
 22
84.7973672570256
 32
0.0
 13
243.1916770325756
 23
84.7973672570256
 33
0.0
  0
MTEXT
  5
88A
330
881
100
AcDbEntity
  8
7标注层
 62
     3
440
 16777216
100
AcDbMText
 10
228.3078308787295
 20
87.57813648779483
 30
0.0
 40
2.5
 41
0.0
 46
0.0
 71
     5
 72
     1
  1
\A1;1.0%%P0.20
  7
TH-GBD2M
 73
     1
 44
1.0
  0
POINT
  5
88B
330
881
100
AcDbEntity
  8
Defpoints
 62
     0
440
 16777216
100
AcDbPoint
 10
246.1916770325756
 20
91.28558965983129
 30
0.0
  0
POINT
  5
88C
330
881
100
AcDbEntity
  8
Defpoints
 62
     0
440
 16777216
100
AcDbPoint
 10
243.1916770325756
 20
91.28558965983129
 30
0.0
  0
POINT
  5
88D
330
881
100
AcDbEntity
  8
Defpoints
 62
     0
440
 16777216
100
AcDbPoint
 10
243.1916770325756
 20
84.7973672570256
 30
0.0
  0
ENDBLK
  5
883
330
881
100
AcDbEntity
  8
0
100
AcDbBlockEnd
  0
ENDSEC
  0
SECTION
  2
ENTITIES
  0
LINE
  5
801
330
1F
100
AcDbEntity
  8
6文字层
 62
     0
100
AcDbLine
 10
147.0
 20
9.999999999998181
 30
0.0
 11
26.99999999994907
 21
9.999999999998181
 31
0.0
  0
INSERT
  5
802
330
1F
100
AcDbEntity
  8
6文字层
100
AcDbBlockReference
  2
*X13
 10
148.5
 20
105.0
 30
0.0
1001
CAXA_DRAFT_PAPERFRAME
1071
        2
1041
138.5
1041
-95.0
1041
0.0
1000
A4A-D-Sighted(CHS)
1070
     1
1001
CAXA_DRAFT_BLKHIDE
1070
     0
  0
LINE
  5
803
330
1F
100
AcDbEntity
  8
1轮廓实线层
100
AcDbLine
 10
147.0
 20
9.999999999998181
 30
0.0
 11
287.0
 21
9.999999999998181
 31
0.0
  0
LINE
  5
804
330
1F
100
AcDbEntity
  8
粗实线层
100
AcDbLine
 10
182.0003469713992
 20
15.84100763374863
 30
0.0
 11
287.0
 21
15.841007633755
 31
0.0
  0
LINE
  5
805
330
1F
100
AcDbEntity
  8
细实线层
100
AcDbLine
 10
276.7561453540074
 20
15.841007633755
 30
0.0
 11
276.7561453540074
 21
9.999999999998181
 31
0.0
  0
LINE
  5
806
330
1F
100
AcDbEntity
  8
细实线层
100
AcDbLine
 10
273.8686453540085
 20
12.92050381687659
 30
0.0
 11
280.4311453540086
 21
12.92050381687659
 31
0.0
  0
CIRCLE
  5
807
330
1F
100
AcDbEntity
  8
细实线层
100
AcDbCircle
 10
276.7561453540074
 20
12.92050381687659
 30
0.0
 40
2.187499999999943
  0
CIRCLE
  5
808
330
1F
100
AcDbEntity
  8
细实线层
100
AcDbCircle
 10
276.7561453540074
 20
12.92050381687659
 30
0.0
 40
0.656249999999983
  0
LINE
  5
809
330
1F
100
AcDbEntity
  8
3中心线层
 62
     7
 48
0.1
100
AcDbLine
 10
265.144564142629
 20
12.92050381687659
 30
0.0
 11
273.8686453540085
 21
12.92050381687659
 31
0.0
  0
LINE
  5
80A
330
1F
100
AcDbEntity
  8
3中心线层
 62
     7
100
AcDbLine
 10
266.2950959920181
 20
12.59237881687659
 30
0.0
 11
266.2950959920181
 21
13.24862881687386
 31
0.0
  0
LINE
  5
80B
330
1F
100
AcDbEntity
  8
3中心线层
 62
     7
100
AcDbLine
 10
272.4200959920181
 20
10.73300381687659
 30
0.0
 11
272.4200959920181
 21
15.10800381687477
 31
0.0
  0
LINE
  5
80C
330
1F
100
AcDbEntity
  8
细实线层
100
AcDbLine
 10
266.2950959920181
 20
13.24862881687386
 30
0.0
 11
272.4200959920181
 21
15.10800381687477
 31
0.0
  0
LINE
  5
80D
330
1F
100
AcDbEntity
  8
细实线层
100
AcDbLine
 10
266.2950959920181
 20
12.59237881687659
 30
0.0
 11
272.4200959920181
 21
10.73300381687659
 31
0.0
  0
LINE
  5
80E
330
1F
100
AcDbEntity
  8
粗实线层
100
AcDbLine
 10
182.0003469713992
 20
26.33333333332939
 30
0.0
 11
287.0
 21
26.33333333333303
 31
0.0
  0
LINE
  5
80F
330
1F
100
AcDbEntity
  8
粗实线层
100
AcDbLine
 10
182.0003469713992
 20
39.99999999999909
 30
0.0
 11
287.0
 21
40.0
 31
0.0
  0
MTEXT
  5
810
330
1F
100
AcDbEntity
  8
6文字层
100
AcDbMText
 10
194.1794353788573
 20
21.13543729905632
 30
0.0
 40
2.5
 41
17.84855769230755
 46
4.283653846153733
 71
     5
 72
     5
  1
{\fSimHei|b1|i0|c134|p49;名称 }
 73
     1
 44
1.0
1001
AcDbBlockRepETag
1000

1001
ACAD
1000
ACAD_MTEXT_DEFINED_HEIGHT_BEGIN
1070
    46
1040
4.283653846153733
1000
ACAD_MTEXT_DEFINED_HEIGHT_END
  0
MTEXT
  5
811
330
1F
100
AcDbEntity
  8
6文字层
100
AcDbMText
 10
258.4247746021283
 20
33.3388339475614
 30
0.0
 40
3.0
 41
63.12269194006067
 46
3.808394365490181
 71
     5
 72
     5
  1
{\fSimHei|b1|i0|c134|p49;联合光科技（北京）有限公司}
 73
     1
 44
1.0
1001
AcDbBlockRepETag
1000

1001
ACAD
1000
ACAD_MTEXT_DEFINED_HEIGHT_BEGIN
1070
    46
1040
3.808394365490181
1000
ACAD_MTEXT_DEFINED_HEIGHT_END
  0
MTEXT
  5
812
330
1F
100
AcDbEntity
  8
6文字层
100
AcDbMText
 10
194.3732816028787
 20
12.98934071260373
 30
0.0
 40
2.5
 41
17.84855769230755
 46
4.283653846153733
 71
     5
 72
     5
  1
{\fSimHei|b1|i0|c134|p49;产品编号} 
 73
     1
 44
1.0
1001
AcDbBlockRepETag
1000

1001
ACAD
1000
ACAD_MTEXT_DEFINED_HEIGHT_BEGIN
1070
    46
1040
4.283653846153733
1000
ACAD_MTEXT_DEFINED_HEIGHT_END
  0
MTEXT
  5
813
330
1F
100
AcDbEntity
  8
6文字层
100
AcDbMText
 10
253.431637469479
 20
13.14343400566213
 30
0.0
 40
2.5
 41
17.84855769230755
 46
4.283653846153733
 71
     5
 72
     5
  1
{\fSimHei|b1|i0|c134|p49;mm }
 73
     1
 44
1.0
1001
AcDbBlockRepETag
1000

1001
ACAD
1000
ACAD_MTEXT_DEFINED_HEIGHT_BEGIN
1070
    46
1040
4.283653846153733
1000
ACAD_MTEXT_DEFINED_HEIGHT_END
  0
LINE
  5
814
330
1F
100
AcDbEntity
  8
粗实线层
100
AcDbLine
 10
182.0003469713992
 20
9.941096743267735
 30
0.0
 11
182.0003469713992
 21
39.94109674325682
 31
0.0
  0
LINE
  5
815
330
1F
100
AcDbEntity
  8
粗实线层
100
AcDbLine
 10
206.7603328645291
 20
9.999999999998181
 30
0.0
 11
206.7603328645291
 21
26.33333333332394
 31
0.0
  0
LINE
  5
816
330
1F
100
AcDbEntity
  8
粗实线层
100
AcDbLine
 10
229.6358957687498
 20
26.42852234707152
 30
0.0
 11
229.6358957687498
 21
40.0
 31
0.0
  0
LINE
  5
817
330
1F
100
AcDbEntity
  8
粗实线层
100
AcDbLine
 10
229.6358957687498
 20
9.999999999991814
 30
0.0
 11
229.6358957687389
 21
15.84100763374499
 31
0.0
  0
MTEXT
  5
818
330
1F
100
AcDbEntity
  8
6文字层
100
AcDbMText
 10
238.1972593395403
 20
12.82885780604101
 30
0.0
 40
2.5
 41
17.84855769230755
 46
3.291666666666666
 71
     5
 72
     5
  1
{\fSimHei|b1|i0|c134|p49;单位}
 73
     1
 44
1.0
  0
LINE
  5
819
330
1F
100
AcDbEntity
  8
粗实线层
100
AcDbLine
 10
246.7401531749383
 20
9.999999999998181
 30
0.0
 11
246.7401531749383
 21
15.84100763375227
 31
0.0
  0
LINE
  5
81A
330
1F
100
AcDbEntity
  8
粗实线层
100
AcDbLine
 10
259.3051658955483
 20
9.999999999998181
 30
0.0
 11
259.3051658955483
 21
15.84100763375227
 31
0.0
  0
LINE
  5
81B
330
1F
100
AcDbEntity
  8
0
100
AcDbLine
 10
287.0
 20
9.999999999998181
 30
0.0
 11
187.0
 21
9.999999999998181
 31
0.0
  0
HATCH
  5
81C
330
1F
100
AcDbEntity
  8
3中心线层
 62
     0
100
AcDbHatch
 10
0.0
 20
0.0
 30
0.0
210
0.0
220
0.0
230
1.0
  2
SOLID
 70
     1
 71
     0
 91
       14
 92
        5
 93
        5
 72
     4
 94
        3
 73
     0
 74
     0
 95
        8
 96
        4
 40
7.0
 40
7.0
 40
7.0
 40
7.0
 40
8.0
 40
8.0
 40
8.0
 40
8.0
 10
192.6618587974899
 20
36.25070197904824
 10
192.6618587974899
 20
37.06457350248093
 10
192.0020850279488
 20
37.72435081693493
 10
191.1882099595987
 20
37.72435081693493
 97
        0
 72
     4
 94
        3
 73
     0
 74
     0
 95
        8
 96
        4
 40
0.0
 40
0.0
 40
0.0
 40
0.0
 40
1.0
 40
1.0
 40
1.0
 40
1.0
 10
191.1882099595987
 20
37.72435081693493
 10
191.1882099595987
 20
37.72435081693493
 10
185.5392245201383
 20
37.72435081693493
 10
185.5392245201383
 20
37.72435081693493
 97
        0
 72
     4
 94
        3
 73
     0
 74
     0
 95
       11
 96
        7
 40
1.0
 40
1.0
 40
1.0
 40
1.0
 40
2.0
 40
2.0
 40
2.0
 40
3.0
 40
3.0
 40
3.0
 40
3.0
 10
185.5392245201383
 20
37.72435081693493
 10
184.7253529966983
 20
37.72435081693493
 10
184.0655792271573
 20
37.06457350248093
 10
184.0655792271573
 20
36.25070197904824
 10
184.0655792271573
 20
36.25070197904824
 10
184.0655792271573
 20
30.60171653959333
 10
184.0655792271573
 20
30.60171653959333
 97
        0
 72
     4
 94
        3
 73
     0
 74
     0
 95
       11
 96
        7
 40
3.0
 40
3.0
 40
3.0
 40
3.0
 40
4.0
 40
4.0
 40
4.0
 40
5.0
 40
5.0
 40
5.0
 40
5.0
 10
184.0655792271573
 20
30.60171653959333
 10
184.0655792271573
 20
29.78784147123315
 10
184.7253529966983
 20
29.12806770170301
 10
185.5392245201383
 20
29.12806770170301
 10
185.5392245201383
 20
29.12806770170301
 10
191.1882099595987
 20
29.12806770170301
 10
191.1882099595987
 20
29.12806770170301
 97
        0
 72
     4
 94
        3
 73
     0
 74
     0
 95
       11
 96
        7
 40
5.0
 40
5.0
 40
5.0
 40
5.0
 40
6.0
 40
6.0
 40
6.0
 40
7.0
 40
7.0
 40
7.0
 40
7.0
 10
191.1882099595987
 20
29.12806770170301
 10
192.0020850279488
 20
29.12806770170301
 10
192.6618587974899
 20
29.78784147123315
 10
192.6618587974899
 20
30.60171653959333
 10
192.6618587974899
 20
30.60171653959333
 10
192.6618587974899
 20
36.25070197904824
 10
192.6618587974899
 20
36.25070197904824
 97
        0
 97
        0
 92
       20
 93
       12
 72
     4
 94
        3
 73
     0
 74
     0
 95
        8
 96
        4
 40
10.0
 40
10.0
 40
10.0
 40
10.0
 40
11.0
 40
11.0
 40
11.0
 40
11.0
 10
184.9252050572486
 20
33.42620748685841
 10
184.9252050572486
 20
35.32524340482542
 10
186.4647043638888
 20
36.86472144193522
 10
188.363736736941
 20
36.86472144193522
 97
        0
 72
     4
 94
        3
 73
     0
 74
     0
 95
        8
 96
        4
 40
11.0
 40
11.0
 40
11.0
 40
11.0
 40
12.0
 40
12.0
 40
12.0
 40
12.0
 10
188.363736736941
 20
36.86472144193522
 10
190.2627655650576
 20
36.86472144193522
 10
191.8022294224902
 20
35.32524340482542
 10
191.8022294224902
 20
33.42620748685841
 97
        0
 72
     4
 94
        3
 73
     0
 74
     0
 95
        8
 96
        4
 40
12.0
 40
12.0
 40
12.0
 40
12.0
 40
13.0
 40
13.0
 40
13.0
 40
13.0
 10
191.8022294224902
 20
33.42620748685841
 10
191.8022294224902
 20
31.52716802397026
 10
190.2627655650576
 20
29.98769353177613
 10
188.363736736941
 20
29.98769353177613
 97
        0
 72
     4
 94
        3
 73
     0
 74
     0
 95
        8
 96
        4
 40
0.0
 40
0.0
 40
0.0
 40
0.0
 40
1.0
 40
1.0
 40
1.0
 40
1.0
 10
188.363736736941
 20
29.98769353177613
 10
188.0946452623284
 20
29.98769353177613
 10
187.8332285435681
 20
30.01972899076282
 10
187.5820318345995
 20
30.07842580717261
 97
        0
 72
     4
 94
        3
 73
     0
 74
     0
 95
        8
 96
        4
 40
1.0
 40
1.0
 40
1.0
 40
1.0
 40
2.0
 40
2.0
 40
2.0
 40
2.0
 10
187.5820318345995
 20
30.07842580717261
 10
187.9056371177994
 20
30.29957575834487
 10
188.1181091002199
 20
30.67139197904726
 10
188.1181091002199
 20
31.09293281888767
 97
        0
 72
     4
 94
        3
 73
     0
 74
     0
 95
        8
 96
        4
 40
2.0
 40
2.0
 40
2.0
 40
2.0
 40
3.0
 40
3.0
 40
3.0
 40
3.0
 10
188.1181091002199
 20
31.09293281888767
 10
188.1181091002199
 20
31.183693453655
 10
188.1079706236596
 20
31.27204354154401
 10
188.0892888853686
 20
31.357196109906
 97
        0
 72
     4
 94
        3
 73
     0
 74
     0
 95
        8
 96
        4
 40
3.0
 40
3.0
 40
3.0
 40
3.0
 40
4.0
 40
4.0
 40
4.0
 40
4.0
 10
188.0892888853686
 20
31.357196109906
 10
188.1791420201389
 20
31.34529226225004
 10
188.2706222740489
 20
31.33853918607656
 10
188.3637296470988
 20
31.33853918607656
 97
        0
 72
     4
 94
        3
 73
     0
 74
     0
 95
        8
 96
        4
 40
4.0
 40
4.0
 40
4.0
 40
4.0
 40
5.0
 40
5.0
 40
5.0
 40
5.0
 10
188.3637296470988
 20
31.33853918607656
 10
189.5167119420093
 20
31.33853918607656
 10
190.4513873131072
 20
32.27321810209014
 10
190.4513873131072
 20
33.42620748685841
 97
        0
 72
     4
 94
        3
 73
     0
 74
     0
 95
       11
 96
        7
 40
5.0
 40
5.0
 40
5.0
 40
5.0
 40
6.0
 40
6.0
 40
6.0
 40
7.0
 40
7.0
 40
7.0
 40
7.0
 10
190.4513873131072
 20
33.42620748685841
 10
190.4513873131072
 20
34.57919332670099
 10
189.5167119420093
 20
35.51387578763661
 10
188.3637296470988
 20
35.51387578763661
 10
187.21074735217
 20
35.51387578763661
 10
186.2760507115399
 20
34.57919332670099
 10
186.2760507115399
 20
33.42620748685841
 97
        0
 72
     4
 94
        3
 73
     0
 74
     0
 95
        8
 96
        4
 40
7.0
 40
7.0
 40
7.0
 40
7.0
 40
8.0
 40
8.0
 40
8.0
 40
8.0
 10
186.2760507115399
 20
33.42620748685841
 10
186.2760507115399
 20
33.0067297915466
 10
186.4001158873288
 20
32.61639135404676
 10
186.6130664341981
 20
32.28921278959024
 97
        0
 72
     4
 94
        3
 73
     0
 74
     0
 95
        8
 96
        4
 40
8.0
 40
8.0
 40
8.0
 40
8.0
 40
9.0
 40
9.0
 40
9.0
 40
9.0
 10
186.6130664341981
 20
32.28921278959024
 10
186.1285606920082
 20
32.1774449477989
 10
185.7536143053003
 20
31.77934667631144
 10
185.6766292369284
 20
31.2824620669353
 97
        0
 72
     4
 94
        3
 73
     0
 74
     0
 95
        8
 96
        4
 40
9.0
 40
9.0
 40
9.0
 40
9.0
 40
10.0
 40
10.0
 40
10.0
 40
10.0
 10
185.6766292369284
 20
31.2824620669353
 10
185.2068420103787
 20
31.87036609037659
 10
184.9252050572486
 20
32.61513645170271
 10
184.9252050572486
 20
33.42620748685841
 97
        0
 97
        0
 92
       20
 93
        1
 72
     4
 94
        3
 73
     0
 74
     0
 95
       17
 96
       13
 40
0.0
 40
0.0
 40
0.0
 40
0.0
 40
1.0
 40
1.0
 40
1.0
 40
2.0
 40
2.0
 40
2.0
 40
3.0
 40
3.0
 40
3.0
 40
4.0
 40
4.0
 40
4.0
 40
4.0
 10
186.7672669908388
 20
33.42620748685841
 10
186.7672669908388
 20
34.30790400053138
 10
187.4820331334267
 20
35.02266305326521
 10
188.3637261021777
 20
35.02266305326521
 10
189.2454190709195
 20
35.02266305326521
 10
189.9601710338084
 20
34.30790400053138
 10
189.9601710338084
 20
33.42620748685841
 10
189.9601710338084
 20
32.54451097318542
 10
189.2454190709195
 20
31.82975546537637
 10
188.3637261021777
 20
31.82975546537637
 10
187.4820331334267
 20
31.82975546537637
 10
186.7672669908388
 20
32.54451097318542
 10
186.7672669908388
 20
33.42620748685841
 97
        0
 97
        0
 92
       20
 93
        3
 72
     4
 94
        3
 73
     0
 74
     0
 95
       11
 96
        7
 40
1.0
 40
1.0
 40
1.0
 40
1.0
 40
2.0
 40
2.0
 40
2.0
 40
3.0
 40
3.0
 40
3.0
 40
3.0
 10
186.0304407994408
 20
31.09293281888767
 10
186.0304407994408
 20
31.56769002592137
 10
186.415316512328
 20
31.95255864897081
 10
186.890073719358
 20
31.95255864897081
 10
187.364830926399
 20
31.95255864897081
 10
187.7496960045082
 20
31.56769002592137
 10
187.7496960045082
 20
31.09293281888767
 97
        0
 72
     4
 94
        3
 73
     0
 74
     0
 95
        8
 96
        4
 40
3.0
 40
3.0
 40
3.0
 40
3.0
 40
4.0
 40
4.0
 40
4.0
 40
4.0
 10
187.7496960045082
 20
31.09293281888767
 10
187.7496960045082
 20
30.61817206693831
 10
187.364830926399
 20
30.2333034438916
 10
186.890073719358
 20
30.2333034438916
 97
        0
 72
     4
 94
        3
 73
     0
 74
     0
 95
        8
 96
        4
 40
0.0
 40
0.0
 40
0.0
 40
0.0
 40
1.0
 40
1.0
 40
1.0
 40
1.0
 10
186.890073719358
 20
30.2333034438916
 10
186.415316512328
 20
30.2333034438916
 10
186.0304407994408
 20
30.61817206693831
 10
186.0304407994408
 20
31.09293281888767
 97
        0
 97
        0
 92
        5
 93
       33
 72
     4
 94
        3
 73
     0
 74
     0
 95
       11
 96
        7
 40
5.0
 40
5.0
 40
5.0
 40
5.0
 40
6.0
 40
6.0
 40
6.0
 40
7.0
 40
7.0
 40
7.0
 40
7.0
 10
197.4327506761892
 20
34.32502693008155
 10
197.4327506761892
 20
34.32502693008155
 10
198.2561444363273
 20
34.32502693008155
 10
198.2561444363273
 20
34.32502693008155
 10
198.1278935863392
 20
35.43518281976503
 10
197.2437450432899
 20
36.0075006624802
 10
196.1908979454383
 20
36.0075006624802
 97
        0
 72
     4
 94
        3
 73
     0
 74
     0
 95
        8
 96
        4
 40
4.0
 40
4.0
 40
4.0
 40
4.0
 40
5.0
 40
5.0
 40
5.0
 40
5.0
 10
196.1908979454383
 20
36.0075006624802
 10
194.746598626356
 20
36.0075006624802
 10
193.8827155485687
 20
34.83527263742235
 10
193.8827155485687
 20
33.42861601341701
 97
        0
 72
     4
 94
        3
 73
     0
 74
     0
 95
        8
 96
        4
 40
3.0
 40
3.0
 40
3.0
 40
3.0
 40
4.0
 40
4.0
 40
4.0
 40
4.0
 10
193.8827155485687
 20
33.42861601341701
 10
193.8827155485687
 20
32.02193813182385
 10
194.746598626356
 20
30.84973136434746
 10
196.1908979454383
 20
30.84973136434746
 97
        0
 72
     4
 94
        3
 73
     0
 74
     0
 95
        8
 96
        4
 40
2.0
 40
2.0
 40
2.0
 40
2.0
 40
3.0
 40
3.0
 40
3.0
 40
3.0
 10
196.1908979454383
 20
30.84973136434746
 10
196.7780554708497
 20
30.84973136434746
 10
197.1897731573572
 20
31.02210908549841
 10
197.6419385486497
 20
31.54617222023535
 97
        0
 72
     4
 94
        3
 73
     0
 74
     0
 95
       11
 96
        7
 40
0.5
 40
0.5
 40
0.5
 40
0.5
 40
1.5
 40
1.5
 40
1.5
 40
2.0
 40
2.0
 40
2.0
 40
2.0
 10
197.6419385486497
 20
31.54617222023535
 10
197.6419385486497
 20
31.54617222023535
 10
197.7701893986395
 20
30.96694566382303
 10
197.7701893986395
 20
30.96694566382303
 10
197.7701893986395
 20
30.96694566382303
 10
197.9051711295469
 20
30.96694566382303
 10
198.040152860458
 20
30.96694566382303
 97
        0
 72
     4
 94
        3
 73
     0
 74
     0
 95
       11
 96
        7
 40
14.749965
 40
14.749965
 40
14.749965
 40
14.749965
 40
15.249965
 40
15.249965
 40
15.249965
 40
15.5
 40
15.5
 40
15.5
 40
15.5
 10
198.040152860458
 20
30.96694566382303
 10
198.175134591349
 20
30.96694566382303
 10
198.3101163222472
 20
30.96694566382303
 10
198.3101163222472
 20
30.96694566382303
 10
198.3101163222472
 20
30.96694566382303
 10
198.3101163222472
 20
31.12903359009397
 10
198.3101163222472
 20
31.37215413333979
 97
        0
 72
     4
 94
        3
 73
     0
 74
     0
 95
        8
 96
        4
 40
14.49997
 40
14.49997
 40
14.49997
 40
14.49997
 40
14.749965
 40
14.749965
 40
14.749965
 40
14.749965
 10
198.3101163222472
 20
31.37215413333979
 10
198.3101163222472
 20
31.61523578275319
 10
198.3101163222472
 20
31.939324124407
 10
198.3101163222472
 20
32.26340274389623
 97
        0
 72
     4
 94
        3
 73
     0
 74
     0
 95
        8
 96
        4
 40
14.3749725
 40
14.3749725
 40
14.3749725
 40
14.3749725
 40
14.49997
 40
14.49997
 40
14.49997
 40
14.49997
 10
198.3101163222472
 20
32.26340274389623
 10
198.3101163222472
 20
32.42544205364266
 10
198.3101163222472
 20
32.58747893285272
 10
198.3101163222472
 20
32.73938632971204
 97
        0
 72
     4
 94
        3
 73
     0
 74
     0
 95
        8
 96
        4
 40
14.18747625
 40
14.18747625
 40
14.18747625
 40
14.18747625
 40
14.3749725
 40
14.3749725
 40
14.3749725
 40
14.3749725
 10
198.3101163222472
 20
32.73938632971204
 10
198.3101163222472
 20
32.96724742500464
 10
198.3101163222472
 20
33.17231718502717
 10
198.3101163222472
 20
33.32041680994917
 97
        0
 72
     4
 94
        3
 73
     0
 74
     0
 95
        8
 96
        4
 40
14.1249775
 40
14.1249775
 40
14.1249775
 40
14.1249775
 40
14.18747625
 40
14.18747625
 40
14.18747625
 40
14.18747625
 10
198.3101163222472
 20
33.32041680994917
 10
198.3101163222472
 20
33.36978335159347
 10
198.3101163222472
 20
33.41281987822549
 10
198.3101163222472
 20
33.44826050836582
 97
        0
 72
     4
 94
        3
 73
     0
 74
     0
 95
        8
 96
        4
 40
14.093728125
 40
14.093728125
 40
14.093728125
 40
14.093728125
 40
14.1249775
 40
14.1249775
 40
14.1249775
 40
14.1249775
 10
198.3101163222472
 20
33.44826050836582
 10
198.3101163222472
 20
33.46598082344099
 10
198.3101163222472
 20
33.48180216438596
 10
198.3101163222472
 20
33.49556629603558
 97
        0
 72
     4
 94
        3
 73
     0
 74
     0
 95
        8
 96
        4
 40
14.06247875
 40
14.06247875
 40
14.06247875
 40
14.06247875
 40
14.093728125
 40
14.093728125
 40
14.093728125
 40
14.093728125
 10
198.3101163222472
 20
33.49556629603558
 10
198.3101163222472
 20
33.50933042767611
 10
198.3101163222472
 20
33.52103735001583
 10
198.3101163222472
 20
33.53052882786415
 97
        0
 72
     4
 94
        3
 73
     0
 74
     0
 95
       11
 96
        7
 40
13.99997958222998
 40
13.99997958222998
 40
13.99997958222998
 40
13.99997958222998
 40
14.0
 40
14.0
 40
14.0
 40
14.00071240722656
 40
14.00071240722656
 40
14.00071240722656
 40
14.00071240722656
 10
198.3101163196898
 20
33.55962648270179
 10
198.3101163213978
 20
33.55962648270179
 10
198.3101163222472
 20
33.55962648270179
 10
198.3101163222472
 20
33.55962648270179
 10
198.3101163222472
 20
33.55962648270179
 10
198.3101163222472
 20
33.55962516685849
 10
198.3101163222472
 20
33.55962253703729
 97
        0
 72
     4
 94
        3
 73
     0
 74
     0
 95
        8
 96
        4
 40
13.49999
 40
13.49999
 40
13.49999
 40
13.49999
 40
13.99997958222998
 40
13.99997958222998
 40
13.99997958222998
 40
13.99997958222998
 10
198.3101163196898
 20
33.55962648270179
 10
198.310074429819
 20
33.55962648270179
 10
197.7971442815887
 20
33.55962648270179
 10
197.2842243915401
 20
33.55962648270179
 97
        0
 72
     4
 94
        3
 73
     0
 74
     0
 95
       11
 96
        7
 40
12.99902343580856
 40
12.99902343580856
 40
12.99902343580856
 40
12.99902343580856
 40
13.49901343580856
 40
13.49901343580856
 40
13.49901343580856
 40
13.49999
 40
13.49999
 40
13.49999
 40
13.49999
 10
197.2842243915401
 20
33.55962648270179
 10
196.7713040729195
 20
33.55962648270179
 10
196.2583940124987
 20
33.55962648270179
 10
196.2583940124987
 20
33.55962648270179
 10
196.2583940124987
 20
33.55962648270179
 10
196.2583940124987
 20
33.55962585797352
 10
196.2583940124987
 20
33.55962460973387
 97
        0
 72
     4
 94
        3
 73
     0
 74
     0
 95
        8
 96
        4
 40
12.906251875
 40
12.906251875
 40
12.906251875
 40
12.906251875
 40
12.93750125
 40
12.93750125
 40
12.93750125
 40
12.93750125
 10
196.2583940124987
 20
33.55226998693524
 10
196.2583940124987
 20
33.54987112850631
 10
196.2583940124987
 20
33.54691253559486
 10
196.2583940124987
 20
33.54343418830922
 97
        0
 72
     4
 94
        3
 73
     0
 74
     0
 95
        8
 96
        4
 40
12.81250375
 40
12.81250375
 40
12.81250375
 40
12.81250375
 40
12.8750024998249
 40
12.8750024998249
 40
12.8750024998249
 40
12.8750024998249
 10
196.2583940124987
 20
33.53147986342901
 10
196.2583940124987
 20
33.52252411166319
 10
196.2583940124987
 20
33.5116492629295
 10
196.2583940124987
 20
33.49917515820289
 97
        0
 72
     4
 94
        3
 73
     0
 74
     0
 95
        8
 96
        4
 40
12.75000499991749
 40
12.75000499991749
 40
12.75000499991749
 40
12.75000499991749
 40
12.81250375
 40
12.81250375
 40
12.81250375
 40
12.81250375
 10
196.2583940124987
 20
33.49917515820289
 10
196.2583940124987
 20
33.48670105341716
 10
196.2583940124987
 20
33.47262769262125
 10
196.2583940124987
 20
33.45727491677917
 97
        0
 72
     4
 94
        3
 73
     0
 74
     0
 95
        8
 96
        4
 40
12.6250075
 40
12.6250075
 40
12.6250075
 40
12.6250075
 40
12.75000499991749
 40
12.75000499991749
 40
12.75000499991749
 40
12.75000499991749
 10
196.2583940124987
 20
33.45727491677917
 10
196.2583940124987
 20
33.42656936515232
 10
196.2583940124987
 20
33.39074615335994
 10
196.2583940124987
 20
33.35236400913073
 97
        0
 72
     4
 94
        3
 73
     0
 74
     0
 95
        8
 96
        4
 40
12.50000999999212
 40
12.50000999999212
 40
12.50000999999212
 40
12.50000999999212
 40
12.6250075
 40
12.6250075
 40
12.6250075
 40
12.6250075
 10
196.2583940124987
 20
33.35236400913073
 10
196.2583940124987
 20
33.31398186487695
 10
196.2583940124987
 20
33.27304078819088
 10
196.2583940124987
 20
33.23209950678574
 97
        0
 72
     4
 94
        3
 73
     0
 74
     0
 95
        8
 96
        4
 40
12.250015
 40
12.250015
 40
12.250015
 40
12.250015
 40
12.50000999999212
 40
12.50000999999212
 40
12.50000999999212
 40
12.50000999999212
 10
196.2583940124987
 20
33.23209950678574
 10
196.2583940124987
 20
33.15021694400366
 10
196.2583940124987
 20
33.06833356241077
 10
196.2583940124987
 20
33.00691918389657
 97
        0
 72
     4
 94
        3
 73
     0
 74
     0
 95
       11
 96
        7
 40
11.99928759277344
 40
11.99928759277344
 40
11.99928759277344
 40
11.99928759277344
 40
12.24930259277344
 40
12.24930259277344
 40
12.24930259277344
 40
12.250015
 40
12.250015
 40
12.250015
 40
12.250015
 10
196.2583940124987
 20
33.00691918389657
 10
196.2583940124987
 20
32.94549989213374
 10
196.2583940124987
 20
32.9045528786819
 10
196.2583940124987
 20
32.9045528786819
 10
196.2583940124987
 20
32.9045528786819
 10
196.2583946633076
 20
32.9045528786819
 10
196.2583959640269
 20
32.9045528786819
 97
        0
 72
     4
 94
        3
 73
     0
 74
     0
 95
        8
 96
        4
 40
11.906271875
 40
11.906271875
 40
11.906271875
 40
11.906271875
 40
11.93752124974706
 40
11.93752124974706
 40
11.93752124974706
 40
11.93752124974706
 10
196.2727857364407
 20
32.9045528786819
 10
196.2774802290987
 20
32.9045528786819
 10
196.2832704823995
 20
32.9045528786819
 10
196.290078233098
 20
32.9045528786819
 97
        0
 72
     4
 94
        3
 73
     0
 74
     0
 95
        8
 96
        4
 40
11.8750225
 40
11.8750225
 40
11.8750225
 40
11.8750225
 40
11.906271875
 40
11.906271875
 40
11.906271875
 40
11.906271875
 10
196.290078233098
 20
32.9045528786819
 10
196.2968859838274
 20
32.9045528786819
 10
196.30471123198
 20
32.9045528786819
 10
196.3134757142688
 20
32.9045528786819
 97
        0
 72
     4
 94
        3
 73
     0
 74
     0
 95
        8
 96
        4
 40
11.81252375
 40
11.81252375
 40
11.81252375
 40
11.81252375
 40
11.8750225
 40
11.8750225
 40
11.8750225
 40
11.8750225
 10
196.3134757142688
 20
32.9045528786819
 10
196.3310046788501
 20
32.9045528786819
 10
196.3522905800291
 20
32.9045528786819
 10
196.3767073118088
 20
32.9045528786819
 97
        0
 72
     4
 94
        3
 73
     0
 74
     0
 95
        8
 96
        4
 40
11.75002499995332
 40
11.75002499995332
 40
11.75002499995332
 40
11.75002499995332
 40
11.81252375
 40
11.81252375
 40
11.81252375
 40
11.81252375
 10
196.3767073118088
 20
32.9045528786819
 10
196.4011240436084
 20
32.9045528786819
 10
196.4286716059978
 20
32.9045528786819
 10
196.4587238929689
 20
32.9045528786819
 97
        0
 72
     4
 94
        3
 73
     0
 74
     0
 95
        8
 96
        4
 40
11.6250275
 40
11.6250275
 40
11.6250275
 40
11.6250275
 40
11.75002499995332
 40
11.75002499995332
 40
11.75002499995332
 40
11.75002499995332
 10
196.4587238929689
 20
32.9045528786819
 10
196.5188284668402
 20
32.9045528786819
 10
196.5889519390075
 20
32.9045528786819
 10
196.6640854614179
 20
32.9045528786819
 97
        0
 72
     4
 94
        3
 73
     0
 74
     0
 95
        8
 96
        4
 40
11.50003
 40
11.50003
 40
11.50003
 40
11.50003
 40
11.6250275
 40
11.6250275
 40
11.6250275
 40
11.6250275
 10
196.6640854614179
 20
32.9045528786819
 10
196.7392189838501
 20
32.9045528786819
 10
196.8193625565091
 20
32.9045528786819
 10
196.8995073313272
 20
32.9045528786819
 97
        0
 72
     4
 94
        3
 73
     0
 74
     0
 95
        8
 96
        4
 40
11.250035
 40
11.250035
 40
11.250035
 40
11.250035
 40
11.50003
 40
11.50003
 40
11.50003
 40
11.50003
 10
196.8995073313272
 20
32.9045528786819
 10
197.0597968809397
 20
32.9045528786819
 10
197.220091239149
 20
32.9045528786819
 10
197.3403196212784
 20
32.9045528786819
 97
        0
 72
     4
 94
        3
 73
     0
 74
     0
 95
       11
 96
        7
 40
10.0
 40
10.0
 40
10.0
 40
10.0
 40
10.250035
 40
10.250035
 40
10.250035
 40
11.250035
 40
11.250035
 40
11.250035
 40
11.250035
 10
197.3403196212784
 20
32.9045528786819
 10
197.4605672403395
 20
32.9045528786819
 10
197.5407360609206
 20
32.9045528786819
 10
197.5407360609206
 20
32.9045528786819
 10
197.5272118797893
 20
32.07021409738627
 10
197.0547810232383
 20
31.53926350653728
 10
196.1908979454383
 20
31.55305967635013
 97
        0
 72
     4
 94
        3
 73
     0
 74
     0
 95
        8
 96
        4
 40
9.0
 40
9.0
 40
9.0
 40
9.0
 40
10.0
 40
10.0
 40
10.0
 40
10.0
 10
196.1908979454383
 20
31.55305967635013
 10
195.1583163128489
 20
31.55305967635013
 10
194.7263747739689
 20
32.48392913118824
 10
194.7263747739689
 20
33.42861601341701
 97
        0
 72
     4
 94
        3
 73
     0
 74
     0
 95
        8
 96
        4
 40
8.0
 40
8.0
 40
8.0
 40
8.0
 40
9.0
 40
9.0
 40
9.0
 40
9.0
 10
194.7263747739689
 20
33.42861601341701
 10
194.7263747739689
 20
34.37328163806796
 10
195.1583163128489
 20
35.30417235047662
 10
196.1908979454383
 20
35.30417235047662
 97
        0
 72
     4
 94
        3
 73
     0
 74
     0
 95
        8
 96
        4
 40
7.0
 40
7.0
 40
7.0
 40
7.0
 40
8.0
 40
8.0
 40
8.0
 40
8.0
 10
196.1908979454383
 20
35.30417235047662
 10
196.7983209361282
 20
35.30417235047662
 10
197.3517304280067
 20
34.97319182040883
 10
197.4327506761892
 20
34.32502693008155
 97
        0
 97
        0
 92
        5
 93
        8
 72
     4
 94
        3
 73
     0
 74
     0
 95
       11
 96
        7
 40
0.5
 40
0.5
 40
0.5
 40
0.5
 40
1.5
 40
1.5
 40
1.5
 40
2.0
 40
2.0
 40
2.0
 40
2.0
 10
199.5447570417182
 20
33.01937972961241
 10
199.5447570417182
 20
33.01937972961241
 10
199.5447570417182
 20
35.88469663157503
 10
199.5447570417182
 20
35.88469663157503
 10
199.5447570417182
 20
35.88469663157503
 10
199.3283343781968
 20
35.88469663157503
 10
199.1119117146772
 20
35.88469663157503
 97
        0
 72
     4
 94
        3
 73
     0
 74
     0
 95
       11
 96
        7
 40
9.5
 40
9.5
 40
9.5
 40
9.5
 40
10.0
 40
10.0
 40
10.0
 40
10.5
 40
10.5
 40
10.5
 40
10.5
 10
199.1119117146772
 20
35.88469663157503
 10
198.8954890511486
 20
35.88469663157503
 10
198.6790663876382
 20
35.88469663157503
 10
198.6790663876382
 20
35.88469663157503
 10
198.6790663876382
 20
35.88469663157503
 10
198.6790663876382
 20
35.0977643328697
 10
198.6790663876382
 20
34.31083203416984
 97
        0
 72
     4
 94
        3
 73
     0
 74
     0
 95
       11
 96
        7
 40
8.0
 40
8.0
 40
8.0
 40
8.0
 40
8.5
 40
8.5
 40
8.5
 40
9.5
 40
9.5
 40
9.5
 40
9.5
 10
198.6790663876382
 20
34.31083203416984
 10
198.6790663876382
 20
33.52389973546906
 10
198.6790663876382
 20
32.73696743676647
 10
198.6790663876382
 20
32.73696743676647
 10
198.6790663876382
 20
31.47651678240345
 10
199.4893729950381
 20
30.84973136434746
 10
200.7082917402077
 20
30.84973136434746
 97
        0
 72
     4
 94
        3
 73
     0
 74
     0
 95
        8
 96
        4
 40
7.0
 40
7.0
 40
7.0
 40
7.0
 40
8.0
 40
8.0
 40
8.0
 40
8.0
 10
200.7082917402077
 20
30.84973136434746
 10
201.927210485368
 20
30.84973136434746
 10
202.737517092768
 20
31.47651678240345
 10
202.737517092768
 20
32.73696743676647
 97
        0
 72
     4
 94
        3
 73
     0
 74
     0
 95
       11
 96
        7
 40
5.5
 40
5.5
 40
5.5
 40
5.5
 40
6.5
 40
6.5
 40
6.5
 40
7.0
 40
7.0
 40
7.0
 40
7.0
 10
202.737517092768
 20
32.73696743676647
 10
202.737517092768
 20
32.73696743676647
 10
202.737517092768
 20
35.88469663157503
 10
202.737517092768
 20
35.88469663157503
 10
202.737517092768
 20
35.88469663157503
 10
202.521083753827
 20
35.88469663157503
 10
202.3046504148988
 20
35.88469663157503
 97
        0
 72
     4
 94
        3
 73
     0
 74
     0
 95
       11
 96
        7
 40
4.5
 40
4.5
 40
4.5
 40
4.5
 40
5.0
 40
5.0
 40
5.0
 40
5.5
 40
5.5
 40
5.5
 40
5.5
 10
202.3046504148988
 20
35.88469663157503
 10
202.0882170759596
 20
35.88469663157503
 10
201.8717837370277
 20
35.88469663157503
 10
201.8717837370277
 20
35.88469663157503
 10
201.8717837370277
 20
35.88469663157503
 10
201.8717837370277
 20
35.16836740608324
 10
201.8717837370277
 20
34.45203818059145
 97
        0
 72
     4
 94
        3
 73
     0
 74
     0
 95
       11
 96
        7
 40
3.0
 40
3.0
 40
3.0
 40
3.0
 40
3.5
 40
3.5
 40
3.5
 40
4.5
 40
4.5
 40
4.5
 40
4.5
 10
201.8717837370277
 20
34.45203818059145
 10
201.8717837370277
 20
33.73570895510056
 10
201.8717837370277
 20
33.01937972961241
 10
201.8717837370277
 20
33.01937972961241
 10
201.8717837370277
 20
32.35815275223649
 10
201.8302350266076
 20
31.5936010968926
 10
200.7082917402077
 20
31.5936010968926
 97
        0
 72
     4
 94
        3
 73
     0
 74
     0
 95
        8
 96
        4
 40
2.0
 40
2.0
 40
2.0
 40
2.0
 40
3.0
 40
3.0
 40
3.0
 40
3.0
 10
200.7082917402077
 20
31.5936010968926
 10
199.5863057521383
 20
31.5936010968926
 10
199.5447570417182
 20
32.35815275223649
 10
199.5447570417182
 20
33.01937972961241
 97
        0
 97
        0
 92
        5
 93
        1
 72
     4
 94
        3
 73
     0
 74
     0
 95
       17
 96
       13
 40
0.0
 40
0.0
 40
0.0
 40
0.0
 40
1.0
 40
1.0
 40
1.0
 40
2.0
 40
2.0
 40
2.0
 40
3.0
 40
3.0
 40
3.0
 40
4.0
 40
4.0
 40
4.0
 40
4.0
 10
208.8866848314883
 20
33.42205313907289
 10
208.8866848314883
 20
32.02225724819073
 10
208.0121345599382
 20
30.85578535162767
 10
206.550001090558
 20
30.85578535162767
 10
205.0878676211778
 20
30.85578535162767
 10
204.2133173496277
 20
32.02225724819073
 10
204.2133173496277
 20
33.42205313907289
 10
204.2133173496277
 20
34.82182787638067
 10
205.0878676211778
 20
35.98832092652083
 10
206.550001090558
 20
35.98832092652083
 10
208.0121345599382
 20
35.98832092652083
 10
208.8866848314883
 20
34.82182787638067
 10
208.8866848314883
 20
33.42205313907289
 97
        0
 97
        0
 92
       20
 93
        4
 72
     4
 94
        3
 73
     0
 74
     0
 95
        8
 96
        4
 40
2.0
 40
2.0
 40
2.0
 40
2.0
 40
3.0
 40
3.0
 40
3.0
 40
3.0
 10
206.550001090558
 20
35.28843355787103
 10
207.5953751265879
 20
35.28843355787103
 10
208.0326502623702
 20
34.36209710859657
 10
208.0326502623702
 20
33.42205313907289
 97
        0
 72
     4
 94
        3
 73
     0
 74
     0
 95
        8
 96
        4
 40
1.0
 40
1.0
 40
1.0
 40
1.0
 40
2.0
 40
2.0
 40
2.0
 40
2.0
 10
208.0326502623702
 20
33.42205313907289
 10
208.0326502623702
 20
32.48198801597391
 10
207.5953751265879
 20
31.55567272028384
 10
206.550001090558
 20
31.55567272028384
 97
        0
 72
     4
 94
        3
 73
     0
 74
     0
 95
        8
 96
        4
 40
0.0
 40
0.0
 40
0.0
 40
0.0
 40
1.0
 40
1.0
 40
1.0
 40
1.0
 10
206.550001090558
 20
31.55567272028384
 10
205.5046691812204
 20
31.55567272028384
 10
205.067394045449
 20
32.48198801597391
 10
205.067394045449
 20
33.42205313907289
 97
        0
 72
     4
 94
        3
 73
     0
 74
     0
 95
        8
 96
        4
 40
3.0
 40
3.0
 40
3.0
 40
3.0
 40
4.0
 40
4.0
 40
4.0
 40
4.0
 10
205.067394045449
 20
33.42205313907289
 10
205.067394045449
 20
34.36209710859657
 10
205.5046691812204
 20
35.28843355787103
 10
206.550001090558
 20
35.28843355787103
 97
        0
 97
        0
 92
        5
 93
       31
 72
     4
 94
        3
 73
     0
 74
     0
 95
        8
 96
        4
 40
1.0
 40
1.0
 40
1.0
 40
1.0
 40
2.0
 40
2.0
 40
2.0
 40
2.0
 10
213.0681188951184
 20
34.41104720021304
 10
213.0681188951184
 20
35.05395337570007
 10
212.8016692284073
 20
36.0075006624802
 10
211.4078320548888
 20
36.0075006624802
 97
        0
 72
     4
 94
        3
 73
     0
 74
     0
 95
       11
 96
        7
 40
6.749964999999997
 40
6.749964999999997
 40
6.749964999999997
 40
6.749964999999997
 40
7.749964999999997
 40
7.749964999999997
 40
7.749964999999997
 40
8.0
 40
8.0
 40
8.0
 40
8.0
 10
211.4078320548888
 20
36.0075006624802
 10
211.4078320548888
 20
36.0075006624802
 10
209.2556348971284
 20
36.0075006624802
 10
209.2556348971284
 20
36.0075006624802
 10
209.2556348971284
 20
36.0075006624802
 10
209.2556348971284
 20
35.68504981406295
 10
209.2556348971284
 20
35.20139611300328
 97
        0
 72
     4
 94
        3
 73
     0
 74
     0
 95
        8
 96
        4
 40
6.499969999999997
 40
6.499969999999997
 40
6.499969999999997
 40
6.499969999999997
 40
6.749964999999997
 40
6.749964999999997
 40
6.749964999999997
 40
6.749964999999997
 10
209.2556348971284
 20
35.20139611300328
 10
209.2556348971284
 20
34.71781978570198
 10
209.2556348971284
 20
34.07309217931743
 10
209.2556348971284
 20
33.42838391379792
 97
        0
 72
     4
 94
        3
 73
     0
 74
     0
 95
        8
 96
        4
 40
6.3749725
 40
6.3749725
 40
6.3749725
 40
6.3749725
 40
6.499969999999997
 40
6.499969999999997
 40
6.499969999999997
 40
6.499969999999997
 10
209.2556348971284
 20
33.42838391379792
 10
209.2556348971284
 20
33.10602978103816
 10
209.2556348971284
 20
32.78368048348875
 10
209.2556348971284
 20
32.48148234865494
 97
        0
 72
     4
 94
        3
 73
     0
 74
     0
 95
        8
 96
        4
 40
6.249974999999997
 40
6.249974999999997
 40
6.249974999999997
 40
6.249974999999997
 40
6.374972499999997
 40
6.374972499999997
 40
6.374972499999997
 40
6.374972499999997
 10
209.2556348971284
 20
32.48148234865494
 10
209.2556348971284
 20
32.17928421381567
 10
209.2556348971284
 20
31.8972372416838
 10
209.2556348971284
 20
31.65548775975458
 97
        0
 72
     4
 94
        3
 73
     0
 74
     0
 95
        8
 96
        4
 40
6.187476249999997
 40
6.187476249999997
 40
6.187476249999997
 40
6.187476249999997
 40
6.249974999999999
 40
6.249974999999999
 40
6.249974999999999
 40
6.249974999999999
 10
209.2556348971284
 20
31.65548775975458
 10
209.2556348971284
 20
31.53461301879088
 10
209.2556348971284
 20
31.42381265037966
 10
209.2556348971284
 20
31.32560494544669
 97
        0
 72
     4
 94
        3
 73
     0
 74
     0
 95
        8
 96
        4
 40
6.124977499999999
 40
6.124977499999999
 40
6.124977499999999
 40
6.124977499999999
 40
6.187476249999997
 40
6.187476249999997
 40
6.187476249999997
 40
6.187476249999997
 10
209.2556348971284
 20
31.32560494544669
 10
209.2556348971284
 20
31.22739724051917
 10
209.2556348971284
 20
31.14178219908081
 10
209.2556348971284
 20
31.07127811206192
 97
        0
 72
     4
 94
        3
 73
     0
 74
     0
 95
        8
 96
        4
 40
6.093728125
 40
6.093728125
 40
6.093728125
 40
6.093728125
 40
6.124977499999999
 40
6.124977499999999
 40
6.124977499999999
 40
6.124977499999999
 10
209.2556348971284
 20
31.07127811206192
 10
209.2556348971284
 20
31.03602606855475
 10
209.2556348971284
 20
31.00455176364994
 10
209.2556348971284
 20
30.97716998372471
 97
        0
 72
     4
 94
        3
 73
     0
 74
     0
 95
        8
 96
        4
 40
6.06247875
 40
6.06247875
 40
6.06247875
 40
6.06247875
 40
6.093728125
 40
6.093728125
 40
6.093728125
 40
6.093728125
 10
209.2556348971284
 20
30.97716998372471
 10
209.2556348971284
 20
30.94978820379675
 10
209.2556348971284
 20
30.92649894883653
 10
209.2556348971284
 20
30.90761700522217
 97
        0
 72
     4
 94
        3
 73
     0
 74
     0
 95
        8
 96
        4
 40
6.046854062499997
 40
6.046854062499997
 40
6.046854062499997
 40
6.046854062499997
 40
6.062478749999997
 40
6.062478749999997
 40
6.062478749999997
 40
6.062478749999997
 10
209.2556348971284
 20
30.90761700522217
 10
209.2556348971284
 20
30.89817603341544
 10
209.2556348971284
 20
30.88983688943881
 10
209.2556348971284
 20
30.88263892160012
 97
        0
 72
     4
 94
        3
 73
     0
 74
     0
 95
        8
 96
        4
 40
6.031229375000001
 40
6.031229375000001
 40
6.031229375000001
 40
6.031229375000001
 40
6.046854062500001
 40
6.046854062500001
 40
6.046854062500001
 40
6.046854062500001
 10
209.2556348971284
 20
30.88263892160012
 10
209.2556348971284
 20
30.87544095375597
 10
209.2556348971284
 20
30.86938416204339
 10
209.2556348971284
 20
30.86450789475475
 97
        0
 72
     4
 94
        3
 73
     0
 74
     0
 95
       11
 96
        7
 40
5.999979147302425
 40
5.999979147302425
 40
5.999979147302425
 40
5.999979147302425
 40
6.0
 40
6.0
 40
6.0
 40
6.000468271484374
 40
6.000468271484374
 40
6.000468271484374
 40
6.000468271484374
 10
209.2556348982398
 20
30.84973136434746
 10
209.2556348974995
 20
30.84973136434746
 10
209.2556348971284
 20
30.84973136434746
 10
209.2556348971284
 20
30.84973136434746
 10
209.2556348971284
 20
30.84973136434746
 10
209.2556348971284
 20
30.84973249533869
 10
209.2556348971284
 20
30.84973475624793
 97
        0
 72
     4
 94
        3
 73
     0
 74
     0
 95
        8
 96
        4
 40
5.49999
 40
5.49999
 40
5.49999
 40
5.49999
 40
5.999979147302425
 40
5.999979147302425
 40
5.999979147302425
 40
5.999979147302425
 10
209.2556348982398
 20
30.84973136434746
 10
209.2556527071774
 20
30.84973136434746
 10
209.4691701507909
 20
30.84973136434746
 10
209.6826833242467
 20
30.84973136434746
 97
        0
 72
     4
 94
        3
 73
     0
 74
     0
 95
       11
 96
        7
 40
4.999511717945666
 40
4.999511717945666
 40
4.999511717945666
 40
4.999511717945666
 40
5.499501717945666
 40
5.499501717945666
 40
5.499501717945666
 40
5.499989999999997
 40
5.499989999999997
 40
5.499989999999997
 40
5.499989999999997
 10
209.6826833242467
 20
30.84973136434746
 10
209.8961968618278
 20
30.84973136434746
 10
210.1097061292185
 20
30.84973136434746
 10
210.1097061292185
 20
30.84973136434746
 10
210.1097061292185
 20
30.84973136434746
 10
210.1097061292185
 20
30.84973183625425
 10
210.1097061292185
 20
30.84973277961035
 97
        0
 72
     4
 94
        3
 73
     0
 74
     0
 95
        8
 96
        4
 40
4.937501249873328
 40
4.937501249873328
 40
4.937501249873328
 40
4.937501249873328
 40
4.9531259375
 40
4.9531259375
 40
4.9531259375
 40
4.9531259375
 10
210.1097061292185
 20
30.86237038596209
 10
210.1097061292185
 20
30.86513375723371
 10
210.1097061292185
 20
30.86833504028255
 10
210.1097061292185
 20
30.87195913503274
 97
        0
 72
     4
 94
        3
 73
     0
 74
     0
 95
        8
 96
        4
 40
4.906251875000001
 40
4.906251875000001
 40
4.906251875000001
 40
4.906251875000001
 40
4.93750124987333
 40
4.93750124987333
 40
4.93750124987333
 40
4.93750124987333
 10
210.1097061292185
 20
30.87195913503274
 10
210.1097061292185
 20
30.87920732444127
 10
210.1097061292185
 20
30.88814676061338
 10
210.1097061292185
 20
30.89865664296667
 97
        0
 72
     4
 94
        3
 73
     0
 74
     0
 95
        8
 96
        4
 40
4.875002499912453
 40
4.875002499912453
 40
4.875002499912453
 40
4.875002499912453
 40
4.906251875000001
 40
4.906251875000001
 40
4.906251875000001
 40
4.906251875000001
 10
210.1097061292185
 20
30.89865664296667
 10
210.1097061292185
 20
30.90916652539363
 10
210.1097061292185
 20
30.92124685402723
 10
210.1097061292185
 20
30.93477682828234
 97
        0
 72
     4
 94
        3
 73
     0
 74
     0
 95
        8
 96
        4
 40
4.812503749999998
 40
4.812503749999998
 40
4.812503749999998
 40
4.812503749999998
 40
4.875002499912453
 40
4.875002499912453
 40
4.875002499912453
 40
4.875002499912453
 10
210.1097061292185
 20
30.93477682828234
 10
210.1097061292185
 20
30.9618367766825
 10
210.1097061292185
 20
30.99469530752595
 10
210.1097061292185
 20
31.03238601619159
 97
        0
 72
     4
 94
        3
 73
     0
 74
     0
 95
        8
 96
        4
 40
4.750005
 40
4.750005
 40
4.750005
 40
4.750005
 40
4.812503749999998
 40
4.812503749999998
 40
4.812503749999998
 40
4.812503749999998
 10
210.1097061292185
 20
31.03238601619159
 10
210.1097061292185
 20
31.07007672489999
 10
210.1097061292185
 20
31.11259961143787
 10
210.1097061292185
 20
31.15898827116507
 97
        0
 72
     4
 94
        3
 73
     0
 74
     0
 95
        8
 96
        4
 40
4.625007500000001
 40
4.625007500000001
 40
4.625007500000001
 40
4.625007500000001
 40
4.750005000000001
 40
4.750005000000001
 40
4.750005000000001
 40
4.750005000000001
 10
210.1097061292185
 20
31.15898827116507
 10
210.1097061292185
 20
31.2517655906122
 10
210.1097061292185
 20
31.36000600280295
 10
210.1097061292185
 20
31.47597827062873
 97
        0
 72
     4
 94
        3
 73
     0
 74
     0
 95
        8
 96
        4
 40
4.500009999999996
 40
4.500009999999996
 40
4.500009999999996
 40
4.500009999999996
 40
4.625007499999997
 40
4.625007499999997
 40
4.625007499999997
 40
4.625007499999997
 10
210.1097061292185
 20
31.47597827062873
 10
210.1097061292185
 20
31.59195053845269
 10
210.1097061292185
 20
31.71565466189804
 10
210.1097061292185
 20
31.83935940386164
 97
        0
 72
     4
 94
        3
 73
     0
 74
     0
 95
        8
 96
        4
 40
4.250014999999998
 40
4.250014999999998
 40
4.250014999999998
 40
4.250014999999998
 40
4.500009999999996
 40
4.500009999999996
 40
4.500009999999996
 40
4.500009999999996
 10
210.1097061292185
 20
31.83935940386164
 10
210.1097061292185
 20
32.08676888778791
 10
210.1097061292185
 20
32.33418084575351
 10
210.1097061292185
 20
32.51974538083596
 97
        0
 72
     4
 94
        3
 73
     0
 74
     0
 95
       11
 96
        7
 40
3.999287592773436
 40
3.999287592773436
 40
3.999287592773436
 40
3.999287592773436
 40
4.249302592773436
 40
4.249302592773436
 40
4.249302592773436
 40
4.250014999999998
 40
4.250014999999998
 40
4.250014999999998
 40
4.250014999999998
 10
210.1097061292185
 20
32.51974538083596
 10
210.1097061292185
 20
32.70532476137487
 10
210.1097061292185
 20
32.8290468228397
 10
210.1097061292185
 20
32.8290468228397
 10
210.1097061292185
 20
32.8290468228397
 10
210.1097067880492
 20
32.8290468228397
 10
210.1097081047701
 20
32.8290468228397
 97
        0
 72
     4
 94
        3
 73
     0
 74
     0
 95
        8
 96
        4
 40
3.906271874999998
 40
3.906271874999998
 40
3.906271874999998
 40
3.906271874999998
 40
3.937521249747056
 40
3.937521249747056
 40
3.937521249747056
 40
3.937521249747056
 10
210.1242749955982
 20
32.8290468228397
 10
210.1290272710594
 20
32.8290468228397
 10
210.1348887944696
 20
32.8290468228397
 10
210.1417803392469
 20
32.8290468228397
 97
        0
 72
     4
 94
        3
 73
     0
 74
     0
 95
        8
 96
        4
 40
3.875022499912441
 40
3.875022499912441
 40
3.875022499912441
 40
3.875022499912441
 40
3.906271874999998
 40
3.906271874999998
 40
3.906271874999998
 40
3.906271874999998
 10
210.1417803392469
 20
32.8290468228397
 10
210.1486718841188
 20
32.8290468228397
 10
210.1565934503906
 20
32.8290468228397
 10
210.1654658115076
 20
32.8290468228397
 97
        0
 72
     4
 94
        3
 73
     0
 74
     0
 95
        8
 96
        4
 40
3.81252375
 40
3.81252375
 40
3.81252375
 40
3.81252375
 40
3.875022499912441
 40
3.875022499912441
 40
3.875022499912441
 40
3.875022499912441
 10
210.1654658115076
 20
32.8290468228397
 10
210.1832105336598
 20
32.8290468228397
 10
210.2047584351476
 20
32.8290468228397
 10
210.2294757034779
 20
32.8290468228397
 97
        0
 72
     4
 94
        3
 73
     0
 74
     0
 95
        8
 96
        4
 40
3.750024999999998
 40
3.750024999999998
 40
3.750024999999998
 40
3.750024999999998
 40
3.81252375
 40
3.81252375
 40
3.81252375
 40
3.81252375
 10
210.2294757034779
 20
32.8290468228397
 10
210.2541929718409
 20
32.8290468228397
 10
210.2820796070282
 20
32.8290468228397
 10
210.3125017965285
 20
32.8290468228397
 97
        0
 72
     4
 94
        3
 73
     0
 74
     0
 95
        8
 96
        4
 40
3.6250275
 40
3.6250275
 40
3.6250275
 40
3.6250275
 40
3.750024999999998
 40
3.750024999999998
 40
3.750024999999998
 40
3.750024999999998
 10
210.3125017965285
 20
32.8290468228397
 10
210.3733461755382
 20
32.8290468228397
 10
210.4443327718091
 20
32.8290468228397
 10
210.5203910851578
 20
32.8290468228397
 97
        0
 72
     4
 94
        3
 73
     0
 74
     0
 95
        8
 96
        4
 40
3.50003
 40
3.50003
 40
3.50003
 40
3.50003
 40
3.6250275
 40
3.6250275
 40
3.6250275
 40
3.6250275
 10
210.5203910851578
 20
32.8290468228397
 10
210.5964493985193
 20
32.8290468228397
 10
210.6775794289788
 20
32.8290468228397
 10
210.7587106763785
 20
32.8290468228397
 97
        0
 72
     4
 94
        3
 73
     0
 74
     0
 95
        8
 96
        4
 40
3.250035
 40
3.250035
 40
3.250035
 40
3.250035
 40
3.50003
 40
3.50003
 40
3.50003
 40
3.50003
 10
210.7587106763785
 20
32.8290468228397
 10
210.920973171189
 20
32.8290468228397
 10
211.0832405337788
 20
32.8290468228397
 10
211.2049487629065
 20
32.8290468228397
 97
        0
 72
     4
 94
        3
 73
     0
 74
     0
 95
       11
 96
        7
 40
2.0
 40
2.0
 40
2.0
 40
2.0
 40
2.250035
 40
2.250035
 40
2.250035
 40
3.250035
 40
3.250035
 40
3.250035
 40
3.250035
 10
211.2049487629065
 20
32.8290468228397
 10
211.3266764657292
 20
32.8290468228397
 10
211.4078320548888
 20
32.8290468228397
 10
211.4078320548888
 20
32.8290468228397
 10
212.8016692284073
 20
32.82180914550191
 10
213.0681188951184
 20
33.77535643228384
 10
213.0681188951184
 20
34.41104720021304
 97
        0
 97
        0
 92
       20
 93
       11
 72
     4
 94
        3
 73
     0
 74
     0
 95
        8
 96
        4
 40
3.250015000000001
 40
3.250015000000001
 40
3.250015000000001
 40
3.250015000000001
 40
3.500009999937033
 40
3.500009999937033
 40
3.500009999937033
 40
3.500009999937033
 10
210.74166786559
 20
35.27068283982681
 10
210.8996598794893
 20
35.27068283982681
 10
211.0576534732682
 20
35.27068283982681
 10
211.1761522233682
 20
35.27068283982681
 97
        0
 72
     4
 94
        3
 73
     0
 74
     0
 95
       11
 96
        7
 40
2.0
 40
2.0
 40
2.0
 40
2.0
 40
2.250015
 40
2.250015
 40
2.250015
 40
3.250015
 40
3.250015
 40
3.250015
 40
3.250015
 10
211.1761522233682
 20
35.27068283982681
 10
211.2946604535882
 20
35.27068283982681
 10
211.3736675205491
 20
35.27068283982681
 10
211.3736675205491
 20
35.27068283982681
 10
211.8246309485585
 20
35.27068283982681
 10
212.2140476630393
 20
35.09729036061435
 10
212.2140476630393
 20
34.41826260777361
 97
        0
 72
     4
 94
        3
 73
     0
 74
     0
 95
        8
 96
        4
 40
1.0
 40
1.0
 40
1.0
 40
1.0
 40
2.0
 40
2.0
 40
2.0
 40
2.0
 10
212.2140476630393
 20
34.41826260777361
 10
212.2140476630393
 20
33.76814102472144
 10
211.7426107902775
 20
33.56586464549582
 10
211.3600185573778
 20
33.56586464549582
 97
        0
 72
     4
 94
        3
 73
     0
 74
     0
 95
       11
 96
        7
 40
4.49999
 40
4.49999
 40
4.49999
 40
4.49999
 40
5.49999
 40
5.49999
 40
5.49999
 40
6.0
 40
6.0
 40
6.0
 40
6.0
 10
211.3600185573778
 20
33.56586464549582
 10
211.3600185573778
 20
33.56586464549582
 10
210.1097061292185
 20
33.56586464549582
 10
210.1097061292185
 20
33.56586464549582
 10
210.1097061292185
 20
33.56586464549582
 10
210.1097061292185
 20
33.9920862424342
 10
210.1097061292185
 20
34.41829931493521
 97
        0
 72
     4
 94
        3
 73
     0
 74
     0
 95
       11
 96
        7
 40
3.999267592773436
 40
3.999267592773436
 40
3.999267592773436
 40
3.999267592773436
 40
4.499257592773438
 40
4.499257592773438
 40
4.499257592773438
 40
4.49999
 40
4.49999
 40
4.49999
 40
4.49999
 10
210.1097061292185
 20
34.41829931493521
 10
210.1097061292185
 20
34.84449533925636
 10
210.1097061292185
 20
35.27068283982681
 10
210.1097061292185
 20
35.27068283982681
 10
210.1097061292185
 20
35.27068283982681
 10
210.1097068072377
 20
35.27068283982681
 10
210.1097081622702
 20
35.27068283982681
 97
        0
 72
     4
 94
        3
 73
     0
 74
     0
 95
        8
 96
        4
 40
3.906251875
 40
3.906251875
 40
3.906251875
 40
3.906251875
 40
3.937501249746713
 40
3.937501249746713
 40
3.937501249746713
 40
3.937501249746713
 10
210.1239004527906
 20
35.27068283982681
 10
210.1285290386495
 20
35.27068283982681
 10
210.1342376295288
 20
35.27068283982681
 10
210.1409490839505
 20
35.27068283982681
 97
        0
 72
     4
 94
        3
 73
     0
 74
     0
 95
        8
 96
        4
 40
3.8750025
 40
3.8750025
 40
3.8750025
 40
3.8750025
 40
3.906251875
 40
3.906251875
 40
3.906251875
 40
3.906251875
 10
210.1409490839505
 20
35.27068283982681
 10
210.1476605383977
 20
35.27068283982681
 10
210.1553748564275
 20
35.27068283982681
 10
210.1640148965889
 20
35.27068283982681
 97
        0
 72
     4
 94
        3
 73
     0
 74
     0
 95
        8
 96
        4
 40
3.812503749999999
 40
3.812503749999999
 40
3.812503749999999
 40
3.812503749999999
 40
3.8750025
 40
3.8750025
 40
3.8750025
 40
3.8750025
 10
210.1640148965889
 20
35.27068283982681
 10
210.1812949768791
 20
35.27068283982681
 10
210.2022779456293
 20
35.27068283982681
 10
210.2263466712193
 20
35.27068283982681
 97
        0
 72
     4
 94
        3
 73
     0
 74
     0
 95
        8
 96
        4
 40
3.750004999953268
 40
3.750004999953268
 40
3.750004999953268
 40
3.750004999953268
 40
3.812503749999999
 40
3.812503749999999
 40
3.812503749999999
 40
3.812503749999999
 10
210.2263466712193
 20
35.27068283982681
 10
210.2504153968275
 20
35.27068283982681
 10
210.2775698792793
 20
35.27068283982681
 10
210.3071929869475
 20
35.27068283982681
 97
        0
 72
     4
 94
        3
 73
     0
 74
     0
 95
        8
 96
        4
 40
3.625007499999998
 40
3.625007499999998
 40
3.625007499999998
 40
3.625007499999998
 40
3.750004999953268
 40
3.750004999953268
 40
3.750004999953268
 40
3.750004999953268
 10
210.3071929869475
 20
35.27068283982681
 10
210.3664392022183
 20
35.27068283982681
 10
210.43555991834
 20
35.27068283982681
 10
210.5096180823984
 20
35.27068283982681
 97
        0
 72
     4
 94
        3
 73
     0
 74
     0
 95
        8
 96
        4
 40
3.500009999937033
 40
3.500009999937033
 40
3.500009999937033
 40
3.500009999937033
 40
3.625007499999998
 40
3.625007499999998
 40
3.625007499999998
 40
3.625007499999998
 10
210.5096180823984
 20
35.27068283982681
 10
210.5836762465187
 20
35.27068283982681
 10
210.6626718585685
 20
35.27068283982681
 10
210.74166786559
 20
35.27068283982681
 97
        0
 97
        0
 92
        7
 72
     0
 73
     1
 93
        8
 10
217.3717970626894
 20
36.0075006624802
 10
213.4370689592397
 20
36.0075006624802
 10
213.4370689592397
 20
35.22732358513895
 10
214.9755772384269
 20
35.22732358513895
 10
214.9755772384269
 20
30.84973136434746
 10
215.8264892106981
 20
30.84973136434746
 10
215.8264892106981
 20
35.22732358513895
 10
217.3717970626894
 20
35.22732358513895
 97
        0
 92
        7
 72
     0
 73
     1
 93
        4
 10
218.6007119832193
 20
36.0075006624802
 10
217.7404715399571
 20
36.0075006624802
 10
217.7404715399571
 20
30.84973136434746
 10
218.6007119832193
 20
30.84973136434746
 97
        0
 92
        5
 93
        9
 72
     4
 94
        3
 73
     0
 74
     0
 95
       11
 96
        7
 40
8.0
 40
8.0
 40
8.0
 40
8.0
 40
8.5
 40
8.5
 40
8.5
 40
9.5
 40
9.5
 40
9.5
 40
9.5
 10
222.958620723568
 20
34.32502693008155
 10
223.1726301818398
 20
34.32502693008155
 10
223.3866396401281
 20
34.32502693008155
 10
223.3866396401281
 20
34.32502693008155
 10
223.2839049660197
 20
35.38690685420352
 10
222.4141438410498
 20
36.00061320636724
 10
221.3115512352069
 20
36.0075006624802
 97
        0
 72
     4
 94
        3
 73
     0
 74
     0
 95
        8
 96
        4
 40
7.0
 40
7.0
 40
7.0
 40
7.0
 40
8.0
 40
8.0
 40
8.0
 40
8.0
 10
221.3115512352069
 20
36.0075006624802
 10
219.8459881161889
 20
36.0075006624802
 10
218.9693864580586
 20
34.83527263742235
 10
218.9693864580586
 20
33.42861601341701
 97
        0
 72
     4
 94
        3
 73
     0
 74
     0
 95
        8
 96
        4
 40
6.0
 40
6.0
 40
6.0
 40
6.0
 40
7.0
 40
7.0
 40
7.0
 40
7.0
 10
218.9693864580586
 20
33.42861601341701
 10
218.9693864580586
 20
32.02193813182385
 10
219.8459881161889
 20
30.84973136434746
 10
221.3115512352069
 20
30.84973136434746
 97
        0
 72
     4
 94
        3
 73
     0
 74
     0
 95
        8
 96
        4
 40
5.0
 40
5.0
 40
5.0
 40
5.0
 40
6.0
 40
6.0
 40
6.0
 40
6.0
 10
221.3115512352069
 20
30.84973136434746
 10
222.4963569156389
 20
30.84973136434746
 10
223.324990390558
 20
31.66338651970818
 10
223.3934801732903
 20
32.84250200088354
 97
        0
 72
     4
 94
        3
 73
     0
 74
     0
 95
       11
 96
        7
 40
3.0
 40
3.0
 40
3.0
 40
3.0
 40
4.0
 40
4.0
 40
4.0
 40
5.0
 40
5.0
 40
5.0
 40
5.0
 10
223.3934801732903
 20
32.84250200088354
 10
223.3934801732903
 20
32.84250200088354
 10
222.5579639396892
 20
32.84250200088354
 10
222.5579639396892
 20
32.84250200088354
 10
222.4895163824767
 20
32.12537751906621
 10
222.0717371529063
 20
31.55305967635013
 10
221.3115512352069
 20
31.55305967635013
 97
        0
 72
     4
 94
        3
 73
     0
 74
     0
 95
        8
 96
        4
 40
2.0
 40
2.0
 40
2.0
 40
2.0
 40
3.0
 40
3.0
 40
3.0
 40
3.0
 10
221.3115512352069
 20
31.55305967635013
 10
220.2637673457593
 20
31.55305967635013
 10
219.8254665166787
 20
32.48392913118824
 10
219.8254665166787
 20
33.42861601341701
 97
        0
 72
     4
 94
        3
 73
     0
 74
     0
 95
        8
 96
        4
 40
1.0
 40
1.0
 40
1.0
 40
1.0
 40
2.0
 40
2.0
 40
2.0
 40
2.0
 10
219.8254665166787
 20
33.42861601341701
 10
219.8254665166787
 20
34.37328163806796
 10
220.2637673457593
 20
35.30417235047662
 10
221.3115512352069
 20
35.30417235047662
 97
        0
 72
     4
 94
        3
 73
     0
 74
     0
 95
        8
 96
        4
 40
0.0
 40
0.0
 40
0.0
 40
0.0
 40
1.0
 40
1.0
 40
1.0
 40
1.0
 10
221.3115512352069
 20
35.30417235047662
 10
222.0238111952003
 20
35.30417235047662
 10
222.3867817083792
 20
34.89043605909683
 10
222.5306018070096
 20
34.32502693008155
 97
        0
 72
     4
 94
        3
 73
     0
 74
     0
 95
        8
 96
        4
 40
9.5
 40
9.5
 40
9.5
 40
9.5
 40
10.0
 40
10.0
 40
10.0
 40
10.0
 10
222.5306018070096
 20
34.32502693008155
 10
222.5306018070096
 20
34.32502693008155
 10
222.7446112652906
 20
34.32502693008155
 10
222.958620723568
 20
34.32502693008155
 97
        0
 97
        0
 92
        5
 93
       15
 72
     4
 94
        3
 73
     0
 74
     0
 95
        8
 96
        4
 40
13.0
 40
13.0
 40
13.0
 40
13.0
 40
14.0
 40
14.0
 40
14.0
 40
14.0
 10
225.8386489072291
 20
30.84973136434746
 10
226.8281328781286
 20
30.84973136434746
 10
227.817573885879
 20
31.29103873777331
 10
227.817573885879
 20
32.39430717133837
 97
        0
 72
     4
 94
        3
 73
     0
 74
     0
 95
        8
 96
        4
 40
12.0
 40
12.0
 40
12.0
 40
12.0
 40
13.0
 40
13.0
 40
13.0
 40
13.0
 10
227.817573885879
 20
32.39430717133837
 10
227.817573885879
 20
32.9045528786819
 10
227.5040289239078
 20
33.45618709546489
 10
226.8490129619185
 20
33.64926970012493
 97
        0
 72
     4
 94
        3
 73
     0
 74
     0
 95
        8
 96
        4
 40
11.0
 40
11.0
 40
11.0
 40
11.0
 40
12.0
 40
12.0
 40
12.0
 40
12.0
 10
226.8490129619185
 20
33.64926970012493
 10
226.5911911865078
 20
33.72511674773796
 10
225.4902608424491
 20
34.00782131224787
 10
225.4136146089404
 20
34.02850493817914
 97
        0
 72
     4
 94
        3
 73
     0
 74
     0
 95
        8
 96
        4
 40
10.0
 40
10.0
 40
10.0
 40
10.0
 40
11.0
 40
11.0
 40
11.0
 40
11.0
 10
225.4136146089404
 20
34.02850493817914
 10
225.0582235530783
 20
34.12505686930035
 10
224.8213248245993
 20
34.3181182163853
 10
224.8213248245993
 20
34.66289491626958
 97
        0
 72
     4
 94
        3
 73
     0
 74
     0
 95
        8
 96
        4
 40
9.0
 40
9.0
 40
9.0
 40
9.0
 40
10.0
 40
10.0
 40
10.0
 40
10.0
 10
224.8213248245993
 20
34.66289491626958
 10
224.8213248245993
 20
35.15936571137627
 10
225.3299653843569
 20
35.30417235047662
 10
225.7341195988574
 20
35.30417235047662
 97
        0
 72
     4
 94
        3
 73
     0
 74
     0
 95
        8
 96
        4
 40
8.0
 40
8.0
 40
8.0
 40
8.0
 40
9.0
 40
9.0
 40
9.0
 40
9.0
 10
225.7341195988574
 20
35.30417235047662
 10
226.3333694111079
 20
35.30417235047662
 10
226.7654067004787
 20
35.06972249394676
 10
226.8072098311986
 20
34.43535377343778
 97
        0
 72
     4
 94
        3
 73
     0
 74
     0
 95
       11
 96
        7
 40
6.0
 40
6.0
 40
6.0
 40
6.0
 40
7.0
 40
7.0
 40
7.0
 40
8.0
 40
8.0
 40
8.0
 40
8.0
 10
226.8072098311986
 20
34.43535377343778
 10
226.8072098311986
 20
34.43535377343778
 10
227.6782444378477
 20
34.43535377343778
 10
227.6782444378477
 20
34.43535377343778
 10
227.6782444378477
 20
35.46275390181018
 10
226.8072098311986
 20
36.0075006624802
 10
225.7689627016498
 20
36.0075006624802
 97
        0
 72
     4
 94
        3
 73
     0
 74
     0
 95
        8
 96
        4
 40
5.0
 40
5.0
 40
5.0
 40
5.0
 40
6.0
 40
6.0
 40
6.0
 40
6.0
 10
225.7689627016498
 20
36.0075006624802
 10
224.8700879832595
 20
36.0075006624802
 10
223.9502902179593
 20
35.54550966312309
 10
223.9502902179593
 20
34.55945552903086
 97
        0
 72
     4
 94
        3
 73
     0
 74
     0
 95
        8
 96
        4
 40
4.0
 40
4.0
 40
4.0
 40
4.0
 40
5.0
 40
5.0
 40
5.0
 40
5.0
 10
223.9502902179593
 20
34.55945552903086
 10
223.9502902179593
 20
34.04920982169006
 10
224.2011519654188
 20
33.5389428567687
 10
225.051263525158
 20
33.31140171393781
 97
        0
 72
     4
 94
        3
 73
     0
 74
     0
 95
        8
 96
        4
 40
3.0
 40
3.0
 40
3.0
 40
3.0
 40
4.0
 40
4.0
 40
4.0
 40
4.0
 10
225.051263525158
 20
33.31140171393781
 10
225.7341195988574
 20
33.12520656539709
 10
226.1870369720091
 20
33.03556334796849
 10
226.5354679999291
 20
32.9045528786819
 97
        0
 72
     4
 94
        3
 73
     0
 74
     0
 95
        8
 96
        4
 40
2.0
 40
2.0
 40
2.0
 40
2.0
 40
3.0
 40
3.0
 40
3.0
 40
3.0
 10
226.5354679999291
 20
32.9045528786819
 10
226.7375236256194
 20
32.82870583107069
 10
226.9465822423572
 20
32.67701173584828
 10
226.9465822423572
 20
32.29775524021898
 97
        0
 72
     4
 94
        3
 73
     0
 74
     0
 95
        8
 96
        4
 40
1.0
 40
1.0
 40
1.0
 40
1.0
 40
2.0
 40
2.0
 40
2.0
 40
2.0
 10
226.9465822423572
 20
32.29775524021898
 10
226.9465822423572
 20
31.92540745828501
 10
226.6608773921089
 20
31.55305967635013
 10
225.8944150569568
 20
31.55305967635013
 97
        0
 72
     4
 94
        3
 73
     0
 74
     0
 95
        8
 96
        4
 40
0.0
 40
0.0
 40
0.0
 40
0.0
 40
1.0
 40
1.0
 40
1.0
 40
1.0
 10
225.8944150569568
 20
31.55305967635013
 10
225.1975959642568
 20
31.55305967635013
 10
224.6331892547769
 20
31.84956041067562
 10
224.6331892547769
 20
32.60805214435914
 97
        0
 72
     4
 94
        3
 73
     0
 74
     0
 95
        8
 96
        4
 40
15.5
 40
15.5
 40
15.5
 40
15.5
 40
16.0
 40
16.0
 40
16.0
 40
16.0
 10
224.6331892547769
 20
32.60805214435914
 10
224.6331892547769
 20
32.60805214435914
 10
224.4154306031196
 20
32.60805214435914
 10
224.1976719514569
 20
32.60805214435914
 97
        0
 72
     4
 94
        3
 73
     0
 74
     0
 95
       11
 96
        7
 40
14.0
 40
14.0
 40
14.0
 40
14.0
 40
14.5
 40
14.5
 40
14.5
 40
15.5
 40
15.5
 40
15.5
 40
15.5
 10
224.1976719514569
 20
32.60805214435914
 10
223.9799132997996
 20
32.60805214435914
 10
223.7621546481296
 20
32.60805214435914
 10
223.7621546481296
 20
32.60805214435914
 10
223.7830776950687
 20
31.3875694113176
 10
224.7028324972289
 20
30.84973136434746
 10
225.8386489072291
 20
30.84973136434746
 97
        0
 97
        0
 75
     1
 76
     1
 47
0.0244899890509677
 98
       14
 10
185.2888855928904
 20
36.8103174296948
 10
185.2888855928904
 20
36.8103174296948
 10
185.2888855928904
 20
36.8103174296948
 10
185.2888855928904
 20
36.8103174296948
 10
196.2122221199897
 20
35.52802127778705
 10
199.4144547605592
 20
34.75756560612718
 10
206.5601719246897
 20
35.73545195180031
 10
206.5601719246897
 20
35.73545195180031
 10
211.0077170877775
 20
35.73545195180031
 10
211.0077170877775
 20
35.73545195180031
 10
215.8110645093093
 20
35.67618649195811
 10
218.3016864757083
 20
35.0835287643913
 10
221.6225208953074
 20
35.58728673762835
 10
225.2991575733395
 20
31.32015172498086
450
        0
451
        0
460
0.0
461
0.0
452
        0
462
0.0
453
        2
463
0.0
 63
     5
421
      255
463
1.0
 63
     2
421
 16776960
470
LINEAR
1001
GradientColor1ACI
1070
     5
1001
GradientColor2ACI
1070
     2
1001
ACAD
1010
0.0
1020
0.0
1030
0.0
  0
MTEXT
  5
81D
330
1F
100
AcDbEntity
  8
6文字层
100
AcDbMText
 10
217.9586460285391
 20
12.98934071260373
 30
0.0
 40
2.5
 41
17.84855769230755
 46
4.283653846153733
 71
     5
 72
     5
  1
{\fSimHei|b1|i0|c134|p49;200056}
 73
     1
 44
1.0
1001
AcDbBlockRepETag
1000

1001
ACAD
1000
ACAD_MTEXT_DEFINED_HEIGHT_BEGIN
1070
    46
1040
4.283653846153733
1000
ACAD_MTEXT_DEFINED_HEIGHT_END
  0
MTEXT
  5
81E
330
1F
100
AcDbEntity
  8
6文字层
100
AcDbMText
 10
245.5932871021887
 20
21.13543729905609
 30
0.0
 40
2.5
 41
71.44564321082992
 46
4.283653846153733
 71
     5
 72
     5
  1
{\fSimHei|b1|i0|c134|p49;中远红外带通滤光片  中心波长4.25um\A1;  D=25.00mm }
 73
     1
 44
1.0
1001
AcDbBlockRepETag
1000

1001
ACAD
1000
ACAD_MTEXT_DEFINED_HEIGHT_BEGIN
1070
    46
1040
4.283653846153733
1000
ACAD_MTEXT_DEFINED_HEIGHT_END
  0
LINE
  5
81F
330
1F
100
AcDbEntity
  8
6文字层
 62
     0
100
AcDbLine
 10
147.0000007298586
 20
10.00000025367171
 30
0.0
 11
27.00000072979856
 21
10.00000025366989
 31
0.0
  0
MTEXT
  5
820
102
{ACAD_XDICTIONARY
360
821
102
}
330
1F
100
AcDbEntity
  8
6文字层
100
AcDbMText
 10
21.04260072708712
 20
70.86418703472486
 30
0.0
 40
2.5
 41
114.6703060300538
 46
0.0
 71
     1
 72
     5
  1
\pxqj;{\fSimSun|b1|i0|c134|p49;\C1;注：\P1：本图仅供参考,禁止使用本图加工生产.\P2：图纸细节如有更改不再另行通知.}
  7
标准
 73
     1
 44
1.0
101
Embedded Object
 70
     1
 10
1.0
 20
0.0
 30
0.0
 11
21.04260072708712
 21
70.86418703472486
 31
0.0
 40
114.6703060300538
 41
0.0
 42
63.92857142857143
 43
12.28937728937729
 71
     2
 72
     1
 44
114.6703060300538
 45
1.0
 73
     0
 74
     0
 46
0.0
  0
MTEXT
  5
822
330
1F
100
AcDbEntity
  8
6文字层
100
AcDbMText
 10
26.12401889801549
 20
163.7511217848771
 30
0.0
 40
2.5
 41
73.0012707428877
 46
26.01190476190477
 71
     1
 72
     1
  1
{\fSimSun|b1|i0|c134|p34;\W1;\P\A1;注释： \P1.材料：蓝宝石\P2.中心波长：4.25±0.10um\P3.半带宽：1.10±0.05um\P4.峰值透过率：≥80%       \P5.倒边：保护性倒边\P6.截止吸收：T\H0.7x;\S^ max;\H1.42857x;<1%,T\H0.7x;\S^ avg;\H1.42857x;<0.1%@200~12000nm}
  7
TH-GBD2M
 73
     1
 44
1.0
  0
ACAD_TABLE
  5
823
102
{ACAD_XDICTIONARY
360
9E7
102
}
330
1F
100
AcDbEntity
  8
2细线层
160
              3872
310
200F000061000000880000001D000000000000000000F03F0000000000000000000000000000000000000000000024400000000000000000000000000000F03F0000000000000000AAAAAAAAAAAA414000000000000000000000000000000000000000000000F03F0000000000000000000000000000000000000000000000
310
000000000000000000000000000000F03F0C00000016000000030000C30C000000170000000F0000000C00000012000000000000000C00000016000000030000C3B400000026000000CAB11CCBB17C4D40A8AAAAAAAAAA11C0000000000000000000000000000000000000000000000000000000000000F03F000000000000
310
F03F00000000000000000000000000000000530031000000000002000000010000000000000000000440000000000000F03F0000000000000000000000000000F03F0000000000000000000000000000000000000000010000000000000001000000220000008B5B534F000000A00000A93F000000000C0000001600000003
310
0000C30C000000170000000F0000000C00000012000000000000000C00000016000000030000C3B400000026000000ACD44AADD4BA5740A8AAAAAAAAAA11C0000000000000000000000000000000000000000000000000000000000000F03F000000000000F03F00000000000000000000000000000000530032000000F03F
310
02000000010000000000000000000440000000000000F03F0000000000000000000000000000F03F0000000000000000000000000000000000000000010000000000000001000000220000008B5B534F0000000200000000000000000C00000016000000030000C30C000000170000000F0000000C00000012000000000000
310
000C00000016000000030000C3B4000000260000007EF2277FF2C7314038844338848325C0000000000000000000000000000000000000000000000000000000000000F03F000000000000F03F00000000000000000000000000000000625FB6720000F03F02000000010000000000000000000440000000000000F03F0000
310
000000000000000000000000F03F0000000000000000000000000000000000000000010000000000000001000000220000008B5B534F0000000200000000000000000C00000016000000030000C30C000000170000000F0000000C00000012000000000000000C00000016000000030000C3B4000000260000001017711117
310
914C4071088770088725C0000000000000000000000000000000000000000000000000000000000000F03F000000000000F03F00000000000000000000000000000000735E62970000F03F02000000010000000000000000000440000000000000F03F0000000000000000000000000000F03F000000000000000000000000
310
0000000000000000010000000000000001000000220000008B5B534F0000000200000000000000000C00000016000000030000C30C000000170000000F0000000C00000012000000000000000C00000016000000030000C3B400000026000000888BB8888B48574071088770088725C0000000000000000000000000000000
310
000000000000000000000000000000F03F000000000000F03F00000000000000000000000000000000735E62970000000002000000010000000000000000000440000000000000F03F0000000000000000000000000000F03F0000000000000000000000000000000000000000010000000000000001000000220000008B5B
310
534F000000A00000A93F000000000C00000016000000030000C30C000000170000000F0000000C00000012000000000000000C00000016000000030000C3B400000026000000CDDEECCDDE0C3040E01FFEE11F1E31C0000000000000000000000000000000000000000000000000000000000000F03F000000000000F03F00
310
0000000000000000000000000000004951016DA65E000003000000010000000000000000000440000000000000F03F0000000000000000000000000000F03F0000000000000000000000000000000000000000010000000000000001000000220000008B5B534F0000000000000000000000000C00000016000000030000C3
310
0C000000170000000F0000000C00000012000000000000000C00000016000000030000C3B800000026000000ECCDDEECCD1E4C4054555555551531C0000000000000000000000000000000000000000000000000000000000000F03F000000000000F03F00000000000000000000000000000000380030002D003500300000
310
0005000000010000000000000000000440000000000000F03F0000000000000000000000000000F03F0000000000000000000000000000000000000000010000000000000001000000220000008B5B534F000000000000FF09000000000C00000016000000030000C30C000000170000000F0000000C000000120000000000
310
00000C00000016000000030000C3B800000026000000F5666FF6660F574054555555551531C0000000000000000000000000000000000000000000000000000000000000F03F000000000000F03F00000000000000000000000000000000380030002D00350030000000050000000100000000000000000004400000000000
310
00F03F0000000000000000000000000000F03F0000000000000000000000000000000000000000010000000000000001000000220000008B5B534F0000A93F00000000000000000C00000016000000030000C30C000000170000000F0000000C00000012000000000000000C00000016000000030000C3B800000026000000
310
1D01122001922C40E22EEEE22E6E37C0000000000000000000000000000000000000000000000000000000000000F03F000000000000F03F000000000000000000000000000000001A904951E353845F0000000004000000010000000000000000000440000000000000F03F0000000000000000000000000000F03F000000
310
0000000000000000000000000000000000010000000000000001000000220000008B5B534F0000A93F00000000000000000C00000016000000030000C30C000000170000000F0000000C00000012000000000000000C00000016000000030000C3B400000026000000B7766BB776FB4C40AAAAAAAAAA6A37C0000000000000
310
000000000000000000000000000000000000000000000000F03F000000000000F03F00000000000000000000000000000000390030002500000003000000010000000000000000000440000000000000F03F0000000000000000000000000000F03F0000000000000000000000000000000000000000010000000000000001
310
000000220000008B5B534F0000000000000000000000000C00000016000000030000C30C000000170000000F0000000C00000012000000000000000C00000016000000030000C3B4000000260000005BBBB55BBB7D5740AAAAAAAAAA6A37C0000000000000000000000000000000000000000000000000000000000000F03F
310
000000000000F03F00000000000000000000000000000000390030002500000003000000010000000000000000000440000000000000F03F0000000000000000000000000000F03F0000000000000000000000000000000000000000010000000000000001000000220000008B5B534F000000A00000A93F000000000C0000
310
0016000000040000C30C000000170000000F0000000C00000012000000000000005400000020000000020000000000000000000000000000000000000000000000000000009999999999A95C400000000000000000000000000000000000000000000000000000000000000000000000000000F03F0C000000160000000400
310
00C30C000000170000000F0000000C0000001200000000000000540000002000000002000000000000000000000054555555555519C000000000000000009999999999A95C4054555555555519C0000000000000000000000000000000000000000000000000000000000000F03F0C00000016000000040000C30C00000017
310
0000000F0000000C0000001200000000000000540000002000000002000000000000000000000054555555555529C000000000000000009999999999A95C4054555555555529C0000000000000000000000000000000000000000000000000000000000000F03F0C00000016000000040000C30C000000170000000F000000
310
0C00000012000000000000005400000020000000020000000000000000000000FFFFFFFFFFFF32C000000000000000009999999999A95C40FFFFFFFFFFFF32C0000000000000000000000000000000000000000000000000000000000000F03F0C00000016000000040000C30C000000170000000F0000000C000000120000
310
0000000000540000002000000002000000000000000000000054555555555539C000000000000000009999999999A95C4054555555555539C0000000000000000000000000000000000000000000000000000000000000F03F0C00000016000000040000C30C000000170000000F0000000C00000012000000000000005400
310
00002000000002000000000000000000000000000000000000000000000000000000000000000000000054555555555539C0000000000000000000000000000000000000000000000000000000000000F03F0C00000016000000040000C30C000000170000000F0000000C0000001200000000000000540000002000000002
310
000000323333333353454000000000000000000000000000000000323333333353454054555555555539C0000000000000000000000000000000000000000000000000000000000000F03F0C00000016000000040000C30C000000170000000F0000000C000000120000000000000054000000200000000200000099999999
310
99A95340000000000000000000000000000000009999999999A9534054555555555539C0000000000000000000000000000000000000000000000000000000000000F03F0C00000016000000040000C30C000000170000000F0000000C00000012000000000000005400000020000000020000009999999999A95C40000000
310
000000000000000000000000009999999999A95C4054555555555539C0000000000000000000000000000000000000000000000000000000000000F03F0C00000016000000080000C30C00000017000000000000000C0000001200000000000000540000002000000002000000000000000000000000000000000000000000
310
00000000000000000000000000000000000000000000000000000000000000000000000000000000000000000000000000000000F03F080000001F000000
100
AcDbBlockReference
  2
*T24
 10
10.0
 20
35.33333333333333
 30
0.0
100
AcDbTable
280
     0
342
7F
343
85B
 11
1.0
 21
0.0
 31
0.0
 90
       22
 91
        4
 92
        3
 93
        3
 94
        0
 95
        0
 96
        0
280
     1
281
     1
141
6.333333333333332
141
6.333333333333332
141
6.333333333333332
141
6.333333333333332
142
42.64999999999999
142
36.0
142
36.0
171
     1
172
     0
173
     0
174
     0
175
     1
176
     1
 91
       48
178
     0
145
0.0
  7
表格
140
2.5
 92
        0
301
CELL_VALUE
 93
        7
 90
        0
 94
        0
300

302

304
ACVALUE_END
171
     1
172
     0
173
     0
174
     0
175
     1
176
     1
 91
   262201
178
     0
145
0.0
170
     5
  7
表格
 64
     3
140
2.5
 92
        0
301
CELL_VALUE
 93
        6
 90
        4
  1
{\fSimSun|b1|i0|c134|p34;S1}
 94
        0
300

302
{\fSimSun|b1|i0|c134|p34;S1}
304
ACVALUE_END
171
     1
172
     0
173
     0
174
     0
175
     1
176
     1
 91
   262201
178
     0
145
0.0
170
     5
  7
表格
 64
     3
140
2.5
 92
        0
301
CELL_VALUE
 93
        6
 90
        4
  1
{\fSimSun|b1|i0|c134|p34;S2}
 94
        0
300

302
{\fSimSun|b1|i0|c134|p34;S2}
304
ACVALUE_END
171
     1
172
     0
173
     0
174
     0
175
     1
176
     1
 91
   262201
178
     0
145
0.0
170
     5
  7
表格
 64
     3
140
2.5
 92
        0
301
CELL_VALUE
 93
        6
 90
        4
  1
{\fSimSun|b1|i0|c134|p34;形状}
 94
        0
300

302
{\fSimSun|b1|i0|c134|p34;形状}
304
ACVALUE_END
171
     1
172
     0
173
     0
174
     0
175
     1
176
     1
 91
   262201
178
     0
145
0.0
170
     5
  7
表格
 64
     3
140
2.5
 92
        0
301
CELL_VALUE
 93
        6
 90
        4
  1
{\fSimSun|b1|i0|c134|p34;平面}
 94
        0
300

302
{\fSimSun|b1|i0|c134|p34;平面}
304
ACVALUE_END
171
     1
172
     0
173
     0
174
     0
175
     1
176
     1
 91
   262201
178
     0
145
0.0
170
     5
  7
表格
 64
     3
140
2.5
 92
        0
301
CELL_VALUE
 93
        6
 90
        4
  1
{\fSimSun|b1|i0|c134|p34;平面}
 94
        0
300

302
{\fSimSun|b1|i0|c134|p34;平面}
304
ACVALUE_END
171
     1
172
     0
173
     0
174
     0
175
     1
176
     1
 91
   262201
178
     0
145
0.0
170
     5
  7
表格
 64
     3
140
2.5
 92
        0
301
CELL_VALUE
 93
        6
 90
        4
  1
{\fSimSun|b1|i0|c134|p34;光洁度}
 94
        0
300

302
{\fSimSun|b1|i0|c134|p34;光洁度}
304
ACVALUE_END
171
     1
172
     0
173
     0
174
     0
175
     1
176
     1
 91
   262201
178
     0
145
0.0
170
     5
  7
表格
 64
     3
140
2.5
 92
        0
301
CELL_VALUE
 93
        6
 90
        4
  1
{\fSimSun|b1|i0|c134|p34;80-50}
 94
        0
300

302
{\fSimSun|b1|i0|c134|p34;80-50}
304
ACVALUE_END
171
     1
172
     0
173
     0
174
     0
175
     1
176
     1
 91
   262201
178
     0
145
0.0
170
     5
  7
表格
 64
     3
140
2.5
 92
        0
301
CELL_VALUE
 93
        6
 90
        4
  1
{\fSimSun|b1|i0|c134|p34;80-50}
 94
        0
300

302
{\fSimSun|b1|i0|c134|p34;80-50}
304
ACVALUE_END
171
     1
172
     0
173
     0
174
     0
175
     1
176
     1
 91
   262201
178
     0
145
0.0
170
     5
  7
表格
 64
     3
140
2.5
 92
        0
301
CELL_VALUE
 93
        6
 90
        4
  1
{\fSimSun|b1|i0|c134|p34;通光口径}
 94
        0
300

302
{\fSimSun|b1|i0|c134|p34;通光口径}
304
ACVALUE_END
171
     1
172
     0
173
     0
174
     0
175
     1
176
     1
 91
   262201
178
     0
145
0.0
170
     5
  7
表格
 64
     3
140
2.5
 92
        0
301
CELL_VALUE
 93
        6
 90
        4
  1
{\fSimSun|b1|i0|c134|p34;90%}
 94
        0
300

302
{\fSimSun|b1|i0|c134|p34;90%}
304
ACVALUE_END
171
     1
172
     0
173
     0
174
     0
175
     1
176
     1
 91
   262201
178
     0
145
0.0
170
     5
  7
表格
 64
     3
140
2.5
 92
        0
301
CELL_VALUE
 93
        6
 90
        4
  1
{\fSimSun|b1|i0|c134|p34;90%}
 94
        0
300

302
{\fSimSun|b1|i0|c134|p34;90%}
304
ACVALUE_END
  0
ARC
  5
824
330
1F
100
AcDbEntity
  8
1轮廓实线层
  6
Continuous
370
    25
100
AcDbCircle
 10
158.1382314880757
 20
128.1855896598313
 30
0.0
 40
36.90000000000001
100
AcDbArc
 50
0.0
 51
180.0
  0
ARC
  5
825
330
1F
100
AcDbEntity
  8
1轮廓实线层
  6
Continuous
370
    25
100
AcDbCircle
 10
158.1382314880757
 20
128.1855896598313
 30
0.0
 40
36.90000000000001
100
AcDbArc
 50
180.0
 51
0.0
  0
ARC
  5
826
102
{ACAD_REACTORS
330
838
330
844
102
}
330
1F
100
AcDbEntity
  8
1轮廓实线层
  6
Continuous
370
    25
100
AcDbCircle
 10
158.1382314880757
 20
128.1855896598313
 30
0.0
 40
37.5
100
AcDbArc
 50
0.0
 51
180.0
  0
ARC
  5
827
330
1F
100
AcDbEntity
  8
1轮廓实线层
  6
Continuous
370
    25
100
AcDbCircle
 10
158.1382314880757
 20
128.1855896598313
 30
0.0
 40
37.5
100
AcDbArc
 50
180.0
 51
0.0
  0
LINE
  5
828
330
1F
100
AcDbEntity
  8
1轮廓实线层
  6
Continuous
370
    25
100
AcDbLine
 10
243.7916770325756
 20
165.6855896598313
 30
0.0
 11
243.1916770325756
 21
165.0855896598313
 31
0.0
  0
LINE
  5
829
102
{ACAD_REACTORS
330
849
102
}
330
1F
100
AcDbEntity
  8
1轮廓实线层
  6
Continuous
370
    25
100
AcDbLine
 10
243.7916770325756
 20
90.68558965983129
 30
0.0
 11
245.5916770325757
 21
90.68558965983129
 31
0.0
  0
LINE
  5
82A
102
{ACAD_REACTORS
330
84A
102
}
330
1F
100
AcDbEntity
  8
1轮廓实线层
  6
Continuous
370
    25
100
AcDbLine
 10
245.5916770325757
 20
165.6855896598313
 30
0.0
 11
243.7916770325756
 21
165.6855896598313
 31
0.0
  0
LINE
  5
82B
330
1F
100
AcDbEntity
  8
1轮廓实线层
  6
Continuous
370
    25
100
AcDbLine
 10
243.1916770325756
 20
91.28558965983129
 30
0.0
 11
243.7916770325756
 21
90.68558965983129
 31
0.0
  0
LINE
  5
82C
330
1F
100
AcDbEntity
  8
1轮廓实线层
  6
Continuous
370
    25
100
AcDbLine
 10
245.5916770325757
 20
90.68558965983129
 30
0.0
 11
246.1916770325756
 21
91.28558965983129
 31
0.0
  0
LINE
  5
82D
330
1F
100
AcDbEntity
  8
1轮廓实线层
  6
Continuous
370
    25
100
AcDbLine
 10
246.1916770325756
 20
165.0855896598313
 30
0.0
 11
245.5916770325757
 21
165.6855896598313
 31
0.0
  0
LINE
  5
82E
330
1F
100
AcDbEntity
  8
1轮廓实线层
  6
Continuous
370
    25
100
AcDbLine
 10
243.7916770325756
 20
165.6855896598313
 30
0.0
 11
243.7916770325756
 21
128.1855896598313
 31
0.0
  0
LINE
  5
82F
330
1F
100
AcDbEntity
  8
1轮廓实线层
  6
Continuous
370
    25
100
AcDbLine
 10
243.1916770325756
 20
128.1855896598313
 30
0.0
 11
243.1916770325756
 21
165.0855896598313
 31
0.0
  0
LINE
  5
830
330
1F
100
AcDbEntity
  8
1轮廓实线层
  6
Continuous
370
    25
100
AcDbLine
 10
243.7916770325756
 20
128.1855896598313
 30
0.0
 11
243.7916770325756
 21
90.68558965983129
 31
0.0
  0
LINE
  5
831
330
1F
100
AcDbEntity
  8
1轮廓实线层
  6
Continuous
370
    25
100
AcDbLine
 10
245.5916770325757
 20
90.68558965983129
 30
0.0
 11
245.5916770325757
 21
128.1855896598313
 31
0.0
  0
LINE
  5
832
330
1F
100
AcDbEntity
  8
1轮廓实线层
  6
Continuous
370
    25
100
AcDbLine
 10
245.5916770325757
 20
128.1855896598313
 30
0.0
 11
245.5916770325757
 21
165.6855896598313
 31
0.0
  0
LINE
  5
833
102
{ACAD_REACTORS
330
83D
102
}
330
1F
100
AcDbEntity
  8
1轮廓实线层
  6
Continuous
370
    25
100
AcDbLine
 10
243.1916770325756
 20
91.28558965983129
 30
0.0
 11
243.1916770325756
 21
128.1855896598313
 31
0.0
  0
LINE
  5
834
102
{ACAD_REACTORS
330
83D
102
}
330
1F
100
AcDbEntity
  8
1轮廓实线层
  6
Continuous
370
    25
100
AcDbLine
 10
246.1916770325756
 20
128.1855896598313
 30
0.0
 11
246.1916770325756
 21
91.28558965983129
 31
0.0
  0
LINE
  5
835
330
1F
100
AcDbEntity
  8
1轮廓实线层
  6
Continuous
370
    25
100
AcDbLine
 10
246.1916770325756
 20
165.0855896598313
 30
0.0
 11
246.1916770325756
 21
128.1855896598313
 31
0.0
  0
DIMENSION
  5
836
102
{ACAD_XDICTIONARY
360
837
102
}
102
{ACAD_REACTORS
330
838
102
}
330
1F
100
AcDbEntity
  8
7标注层
100
AcDbDimension
280
     0
  2
*D25
 10
133.0822729471256
 20
100.2848917905273
 30
0.0
 11
203.5452292282262
 21
170.1076268385467
 31
0.0
 70
   163
  1
%%C25.00 {\H0.7x;\S 0.00^ -0.20;}
 71
     5
 42
74.99999999999983
 73
     0
 74
     0
 75
     0
  3
ISO-25_2.0
100
AcDbDiametricDimension
 15
183.1941900290259
 25
156.0862875291353
 35
0.0
 40
0.0
1001
ACAD_DSTYLE_DIMRADIAL_EXTENSION
1070
   387
1070
     1
1070
   388
1040
0.0
1070
   390
1040
3.141592653589793
  0
INSERT
  5
839
102
{ACAD_REACTORS
330
845
102
}
330
1F
100
AcDbEntity
  8
3中心线层
  6
CENTER2
100
AcDbBlockReference
  2
*U22
 10
158.1382314880757
 20
128.1855896598313
 30
0.0
  0
INSERT
  5
83A
102
{ACAD_REACTORS
330
84B
102
}
330
1F
100
AcDbEntity
  8
3中心线层
  6
CENTER2
100
AcDbBlockReference
  2
*U23
 10
244.6916770325757
 20
128.1855896598313
 30
0.0
  0
DIMENSION
  5
83B
102
{ACAD_XDICTIONARY
360
83C
102
}
102
{ACAD_REACTORS
330
83D
102
}
330
1F
100
AcDbEntity
  8
7标注层
100
AcDbDimension
280
     0
  2
*D26
 10
243.1916770325756
 20
84.7973672570256
 30
0.0
 11
228.3078308787295
 21
87.57813648779483
 31
0.0
 70
    32
  1
1.0%%P0.20
 71
     5
 42
3.0
 73
     0
 74
     0
 75
     0
  3
TH-GBD2M
100
AcDbAlignedDimension
 13
246.1916770325756
 23
91.28558965983129
 33
0.0
 14
243.1916770325756
 24
91.28558965983129
 34
0.0
100
AcDbRotatedDimension
  0
MULTILEADER
  5
83E
330
1F
100
AcDbEntity
  8
7标注层
160
               712
310
C80200001A0000000C00000016000000030000C30C00000033000000000000000C00000013000000993A00000C00000016000000030000C3BC000000260000001BED755A6B246D404B05589132AE6140000000000000000000000000000000000000000000000000000000000000F03F000000000000F03F00000000000000
310
00000000000000000053003100000037C0020000000100000000000000000004409A9999999999E93F0000000000000000000000000000F03F000000000000000000000000000000000000000000000000000000000100000022000000430061006C006900620072006900000000000000000000000C000000330000000000
310
00000C00000010000000070000000C00000016000000000000C00C00000012000000FF7F00000C00000013000000010000000C0000001400000001000000540000000700000003000000C5A4BF6FA93D6E4070C38E563B8160400000000000000000D049DF3722666E4070EEB959F00560400000000000000000572A8AD5DC
310
176E4005F825FA706D604000000000000000000C00000014000000010000000C00000013000000891300003C00000006000000020000008EE7A422C32A6E40BA5D5A28567760400000000000000000407DABE661906D404C055891329E614000000000000000000C00000013000000112700003C0000000600000002000000
310
407DABE661906D404C055891329E61400000000000000000407DABE661806D404C055891329E614000000000000000000C00000016000000000000C00C00000012000000FF7F00000C00000017000000000000000C000000130000009A3A00003C00000006000000020000001F9FFC2BEA276D404C055891329E6140000000
310
0000000000407DABE661806D404C055891329E614000000000000000000C00000016000000000000C00C00000012000000FF7F00000C00000017000000FFFFFFFF0C0000003300000000000000
100
AcDbMLeader
270
     2
300
CONTEXT_DATA{
 40
1.0
 10
233.2473354276671
 20
140.9436728209642
 30
0.0
 41
2.5
140
4.0
145
0.0
174
     5
175
     5
176
     0
177
     0
290
     1
304
S1
 11
0.0
 21
0.0
 31
1.0
340
2CB
 12
233.2473354276672
 22
143.9686728209642
 32
0.0
 13
1.0
 23
0.0
 33
0.0
 42
0.0
 43
0.0
 44
0.0
 45
1.0
170
     1
 90
-1023410173
171
     1
172
     5
 91
-1073741824
141
0.0
 92
        0
291
     0
292
     0
173
     0
293
     0
142
0.0
143
0.0
294
     0
295
     0
296
     0
110
240.6916989343407
120
128.1414712906371
130
0.0
111
1.0
121
0.0
131
0.0
112
0.0
122
1.0
132
0.0
297
     0
302
LEADER{
290
     1
291
     1
 10
236.5119508122825
 20
140.9436728209642
 30
0.0
 11
-1.0
 21
0.0
 31
0.0
 90
        0
 40
0.5
304
LEADER_LINE{
 10
243.1916770325756
 20
128.1855896598313
 30
0.0
 91
        0
305
}
271
     0
303
}
272
     9
273
     9
301
}
340
7A7
 90
   263168
170
     1
 91
-1073741824
341
14
171
    -2
290
     1
291
     1
 41
0.5
 42
4.0
172
     2
343
2CB
173
     5
 95
        5
174
     1
175
     0
 92
-1023410173
292
     0
 93
-1056964608
 10
1.0
 20
1.0
 30
1.0
 43
0.0
176
     0
293
     0
294
     0
178
     0
179
     1
 45
1.0
271
     0
272
     9
273
     9
295
     0
  0
MULTILEADER
  5
83F
330
1F
100
AcDbEntity
  8
7标注层
160
               712
310
C80200001A0000000C00000016000000030000C30C00000033000000000000000C00000013000000993A00000C00000016000000030000C3BC00000026000000AB2110C02ECD6F40F7CD9C637AC66140000000000000000000000000000000000000000000000000000000000000F03F000000000000F03F00000000000000
310
00000000000000000053003200000031C0020000000100000000000000000004409A9999999999E93F0000000000000000000000000000F03F000000000000000000000000000000000000000000000000000000000100000022000000430061006C006900620072006900000000000000000000000C000000330000000000
310
00000C00000010000000070000000C00000016000000000000C00C00000012000000FF7F00000C00000013000000010000000C0000001400000001000000540000000700000003000000DA08552FC0186F409E21B6AA016A60400000000000000000D049DF3722C66E4070EEB959F005604000000000000000005B1EE89FD4
310
F36E40373A4B65647F604000000000000000000C00000014000000010000000C00000013000000891300003C00000006000000020000009A939E674A066F40EBAD0008B37460400000000000000000B0D39691ADC06F40F7CD9C637AB6614000000000000000000C00000013000000122700003C0000000600000002000000
310
B0D39691ADC06F40F7CD9C637AB661400000000000000000B0D39691ADD06F40F7CD9C637AB6614000000000000000000C00000016000000000000C00C00000012000000FF7F00000C00000017000000000000000C000000130000009A3A00003C0000000600000002000000B0D39691ADD06F40F7CD9C637AB66140000000
310
000000000034F98DBE7F147040F7CD9C637AB6614000000000000000000C00000016000000000000C00C00000012000000FF7F00000C00000017000000FFFFFFFF0C0000003300000000000000
100
AcDbMLeader
270
     2
300
CONTEXT_DATA{
 40
1.0
 10
254.5211875863874
 20
141.7024400770749
 30
0.0
 41
2.5
140
4.0
145
0.0
174
     5
175
     5
176
     0
177
     0
290
     1
304
S2
 11
0.0
 21
0.0
 31
1.0
340
2CB
 12
254.5211875863874
 22
144.7274400770749
 32
0.0
 13
1.0
 23
0.0
 33
0.0
 42
0.0
 43
0.0
 44
0.0
 45
1.0
170
     1
 90
-1023410173
171
     1
172
     5
 91
-1073741824
141
0.0
 92
        0
291
     0
292
     0
173
     0
293
     0
142
0.0
143
0.0
294
     0
295
     0
296
     0
110
261.965551093061
120
128.9002385467478
130
0.0
111
1.0
121
0.0
131
0.0
112
0.0
122
1.0
132
0.0
297
     0
302
LEADER{
290
     1
291
     1
 10
254.0211875863874
 20
141.7024400770749
 30
0.0
 11
1.0
 21
0.0
 31
0.0
 90
        1
 40
0.5
304
LEADER_LINE{
 10
246.1916770325756
 20
128.1855896598313
 30
0.0
 91
        0
305
}
271
     0
303
}
272
     9
273
     9
301
}
340
7A7
 90
   263168
170
     1
 91
-1073741824
341
14
171
    -2
290
     1
291
     1
 41
0.5
 42
4.0
172
     2
343
2CB
173
     5
 95
        5
174
     1
175
     0
 92
-1023410173
292
     0
 93
-1056964608
 10
1.0
 20
1.0
 30
1.0
 43
0.0
176
     0
293
     0
294
     0
178
     0
179
     1
 45
1.0
271
     0
272
     9
273
     9
295
     0
  0
ENDSEC
  0
SECTION
  2
OBJECTS
  0
DICTIONARY
  5
C
330
0
100
AcDbDictionary
281
     1
  3
ACAD_ASSOCNETWORK
350
6AB
  3
ACAD_CIP_PREVIOUS_PRODUCT_INFO
350
216
  3
ACAD_COLOR
350
6B
  3
ACAD_DETAILVIEWSTYLE
350
21B
  3
ACAD_GROUP
350
D
  3
ACAD_LAYOUT
350
1A
  3
ACAD_MATERIAL
350
6A
  3
ACAD_MLEADERSTYLE
350
12D
  3
ACAD_MLINESTYLE
350
17
  3
ACAD_PLOTSETTINGS
350
19
  3
ACAD_PLOTSTYLENAME
350
E
  3
ACAD_RENDER_ACTIVE_RAPIDRT_SETTINGS
350
50F
  3
ACAD_RENDER_RAPIDRT_SETTINGS
350
508
  3
ACAD_SCALELIST
350
10C
  3
ACAD_SECTIONVIEWSTYLE
350
219
  3
ACAD_TABLESTYLE
350
7E
  3
ACAD_VISUALSTYLE
350
EF
  3
ACDB_RECOMPOSE_DATA
350
9E9
  3
AcDbVariableDictionary
350
5E
  0
DICTIONARY
  5
1FF
330
2
100
AcDbDictionary
280
     1
281
     1
  3
ACAD_LAYERSTATES
360
200
  0
DICTIONARY
  5
13C
330
10
100
AcDbDictionary
280
     1
281
     1
  0
DICTIONARY
  5
2BB
330
2BA
100
AcDbDictionary
280
     1
281
     1
  0
DICTIONARY
  5
2BD
330
2BC
100
AcDbDictionary
280
     1
281
     1
  0
DICTIONARY
  5
2C0
330
2BF
100
AcDbDictionary
280
     1
281
     1
  0
DICTIONARY
  5
2C2
330
2C1
100
AcDbDictionary
280
     1
281
     1
  0
DICTIONARY
  5
2C4
330
2C3
100
AcDbDictionary
280
     1
281
     1
  0
DICTIONARY
  5
2C6
330
2C5
100
AcDbDictionary
280
     1
281
     1
  0
DICTIONARY
  5
2C8
330
2C7
100
AcDbDictionary
280
     1
281
     1
  0
DICTIONARY
  5
1CE
330
1F
100
AcDbDictionary
280
     1
281
     1
  3
ACAD_ASSOCNETWORK
360
71D
  0
DICTIONARY
  5
821
330
820
100
AcDbDictionary
280
     1
281
     1
  0
DICTIONARY
  5
9E7
330
823
100
AcDbDictionary
280
     1
281
     1
  3
ACAD_XREC_ROUNDTRIP
360
9E8
  0
DICTIONARY
  5
837
330
836
100
AcDbDictionary
280
     1
281
     1
  3
ACAD_DIMASSOC
360
838
  0
DICTIONARY
  5
83C
330
83B
100
AcDbDictionary
280
     1
281
     1
  3
ACAD_DIMASSOC
360
83D
  0
DICTIONARY
  5
6AB
102
{ACAD_REACTORS
330
C
102
}
330
C
100
AcDbDictionary
281
     1
  3
ACAD_ASSOCNETWORK
350
6AC
  0
XRECORD
  5
216
102
{ACAD_REACTORS
330
C
102
}
330
C
100
AcDbXrecord
280
     1
300
ACD
300
2021
300

  0
DICTIONARY
  5
6B
102
{ACAD_REACTORS
330
C
102
}
330
C
100
AcDbDictionary
281
     1
  0
DICTIONARY
  5
21B
102
{ACAD_REACTORS
330
C
102
}
330
C
100
AcDbDictionary
281
     1
  3
Metric50
350
21C
  0
DICTIONARY
  5
D
102
{ACAD_REACTORS
330
C
102
}
330
C
100
AcDbDictionary
281
     1
  0
DICTIONARY
  5
1A
102
{ACAD_REACTORS
330
C
102
}
330
C
100
AcDbDictionary
281
     1
  3
Model
350
22
  3
布局1
350
D3
  3
布局2
350
D7
  0
DICTIONARY
  5
6A
102
{ACAD_REACTORS
330
C
102
}
330
C
100
AcDbDictionary
281
     1
  3
ByBlock
350
ED
  3
ByLayer
350
EC
  3
Global
350
EE
  0
DICTIONARY
  5
12D
102
{ACAD_REACTORS
330
C
102
}
330
C
100
AcDbDictionary
281
     1
  3
Annotative
350
13B
  3
Standard
350
12E
  3
箭头引线标注
350
7A7
  0
DICTIONARY
  5
17
102
{ACAD_REACTORS
330
C
102
}
330
C
100
AcDbDictionary
281
     1
  3
Standard
350
18
  0
DICTIONARY
  5
19
102
{ACAD_REACTORS
330
C
102
}
330
C
100
AcDbDictionary
281
     1
  0
ACDBDICTIONARYWDFLT
  5
E
102
{ACAD_REACTORS
330
C
102
}
330
C
100
AcDbDictionary
281
     1
  3
Normal
350
F
100
AcDbDictionaryWithDefault
340
F
  0
RAPIDRTRENDERSETTINGS
  5
50F
102
{ACAD_REACTORS
330
C
102
}
330
C
100
AcDbRenderSettings
 90
        2
  1
中
290
     1
290
     0
290
     1
290
     1
  1

  1
应用 5 个渲染级别
 90
        0
100
AcDbRapidRTRenderSettings
 90
        3
 70
     0
 90
        5
 90
        1
 70
     1
 70
     2
 40
3.0
 40
3.0
290
     1
  0
DICTIONARY
  5
508
102
{ACAD_REACTORS
330
C
102
}
330
C
100
AcDbDictionary
281
     1
  3
中
350
50A
  3
低
350
509
  3
午餐质量
350
50D
  3
夜间质量
350
50E
  3
茶歇质量
350
50C
  3
高
350
50B
  0
DICTIONARY
  5
10C
102
{ACAD_REACTORS
330
C
102
}
330
C
100
AcDbDictionary
281
     1
  3
A0
350
10D
  3
A1
350
1BE
  3
A2
350
1BF
  3
A3
350
1C0
  3
A4
350
1C1
  3
A5
350
1C2
  3
A6
350
1C3
  3
A7
350
1C4
  3
A8
350
1C5
  3
A9
350
1C6
  3
B0
350
1C7
  3
B1
350
1C8
  3
B2
350
1C9
  3
B3
350
1CA
  3
B4
350
1CB
  3
B5
350
1CC
  3
B6
350
1CD
  0
DICTIONARY
  5
219
102
{ACAD_REACTORS
330
C
102
}
330
C
100
AcDbDictionary
281
     1
  3
Metric50
350
21A
  0
DICTIONARY
  5
7E
102
{ACAD_REACTORS
330
C
102
}
330
C
100
AcDbDictionary
281
     1
  3
Standard
350
7F
  0
DICTIONARY
  5
EF
102
{ACAD_REACTORS
330
C
102
}
330
C
100
AcDbDictionary
281
     1
  3
2dWireframe
350
F5
  3
Basic
350
F4
  3
Brighten
350
FB
  3
ColorChange
350
FF
  3
Conceptual
350
F8
  3
Dim
350
FA
  3
EdgeColorOff
350
1E6
  3
Facepattern
350
FE
  3
Flat
350
F0
  3
FlatWithEdges
350
F1
  3
Gouraud
350
F2
  3
GouraudWithEdges
350
F3
  3
Hidden
350
F7
  3
JitterOff
350
1E4
  3
Linepattern
350
FD
  3
OverhangOff
350
1E5
  3
Realistic
350
F9
  3
Shaded
350
1F3
  3
Shaded with edges
350
1F2
  3
Shades of Gray
350
1EF
  3
Sketchy
350
1F0
  3
Thicken
350
FC
  3
Wireframe
350
F6
  3
X-Ray
350
1F1
  0
XRECORD
  5
9E9
102
{ACAD_REACTORS
330
C
102
}
330
C
100
AcDbXrecord
280
     1
 90
        1
330
7F
330
823
  0
DICTIONARY
  5
5E
102
{ACAD_REACTORS
330
C
102
}
330
C
100
AcDbDictionary
281
     1
  3
CANNOSCALE
350
146
  3
CENTEREXE
350
259
  3
CENTERLTYPEFILE
350
25A
  3
CMLEADERSTYLE
350
145
  3
CTABLESTYLE
350
84
  3
CVIEWDETAILSTYLE
350
227
  3
CVIEWSECTIONSTYLE
350
228
  3
DIMASSOC
350
5F
  3
HIDETEXT
350
63
  3
LAYEREVAL
350
1AE
  3
LAYERNOTIFY
350
1AF
  0
DICTIONARY
  5
200
102
{ACAD_REACTORS
330
1FF
102
}
330
1FF
100
AcDbDictionary
281
     1
  0
DICTIONARY
  5
71D
102
{ACAD_REACTORS
330
1CE
102
}
330
1CE
100
AcDbDictionary
281
     1
  3
ACAD_ASSOCNETWORK
350
71E
  0
XRECORD
  5
9E8
102
{ACAD_REACTORS
330
9E7
102
}
330
9E7
100
AcDbXrecord
280
     1
102
ACAD_ROUNDTRIP_2008_TABLE_ENTITY
360
9E5
 70
     2
 90
        1
 10
0.0
 20
0.0
 30
0.0
 90
        0
 90
        3
361
9E6
  0
DIMASSOC
  5
838
102
{ACAD_REACTORS
330
837
102
}
330
837
100
AcDbDimAssoc
330
836
 90
        2
 70
     0
 71
     0
  1
AcDbOsnapPointRef
 72
     3
331
826
 73
     2
 91
        0
 40
0.0
 10
0.0
 20
0.0
 30
0.0
 75
     0
  0
DIMASSOC
  5
83D
102
{ACAD_REACTORS
330
83C
102
}
330
83C
100
AcDbDimAssoc
330
83B
 90
        3
 70
     0
 71
     0
  1
AcDbOsnapPointRef
 72
     1
331
834
 73
     2
 91
        0
 40
1.0
 10
250.6238399745767
 20
89.34291495911892
 30
0.0
 75
     0
  1
AcDbOsnapPointRef
 72
    13
331
833
 73
     2
 91
        0
 40
0.0
 10
247.6238399745767
 20
89.34291495911892
 30
0.0
 75
     0
  0
ACDBASSOCNETWORK
  5
6AC
102
{ACAD_REACTORS
330
6AB
102
}
330
6AB
100
AcDbAssocAction
 90
        2
 90
        0
330
0
360
0
 90
        0
 90
        0
 90
        0
 90
        0
 90
        0
 90
        0
 90
        0
100
AcDbAssocNetwork
 90
        0
 90
        3
 90
        1
330
71E
 90
        0
  0
ACDBDETAILVIEWSTYLE
  5
21C
102
{ACAD_REACTORS
330
21B
102
}
330
21B
100
AcDbModelDocViewStyle
 70
     0
  3
Metric50
290
     0
300
Metric50
 90
        0
100
AcDbDetailViewStyle
 70
     0
 71
     0
 90
        3
 71
     1
340
11
 62
   256
 40
5.0
340
0
 62
   256
 40
5.0
300

 40
0.0
280
     1
 71
     2
340
16
 90
       25
 62
   256
 71
     3
340
11
 62
   256
 40
5.0
 90
        0
 40
15.0
 90
        1
300
%<\AcVar ViewDetailId>% (%<\AcVar ViewScale \f "%sn">%)
 71
     4
340
16
 90
       25
 62
   256
340
16
 90
       25
 62
   256
280
     0
  0
LAYOUT
  5
22
102
{ACAD_XDICTIONARY
360
205
102
}
102
{ACAD_REACTORS
330
1A
102
}
330
1A
100
AcDbPlotSettings
  1

  2
none_device
  4
ISO_A4_(210.00_x_297.00_MM)
  6

 40
7.5
 41
20.0
 42
7.5
 43
20.0
 44
210.0
 45
297.0
 46
11.54999923706054
 47
-13.65000009536743
 48
0.0
 49
0.0
140
0.0
141
0.0
142
1.0
143
8.704084754739808
 70
 11952
 72
     1
 73
     0
 74
     0
  7

 75
     0
147
0.1148885871608098
 76
     0
 77
     2
 78
   300
148
0.0
149
0.0
100
AcDbLayout
  1
Model
 70
     1
 71
     0
 10
0.0
 20
0.0
 11
12.0
 21
9.0
 12
0.0
 22
0.0
 32
0.0
 14
0.0
 24
0.0
 34
0.0
 15
0.0
 25
0.0
 35
0.0
146
0.0
 13
0.0
 23
0.0
 33
0.0
 16
1.0
 26
0.0
 36
0.0
 17
0.0
 27
1.0
 37
0.0
 76
     0
330
1F
331
EA
1001
ACAD_PSEXT
1000
None
1000
None
1000
Not applicable
1000
The layout will not be plotted unless a new plotter configuration name is selected.
1070
     0
  0
LAYOUT
  5
D3
102
{ACAD_REACTORS
330
1A
102
}
330
1A
100
AcDbPlotSettings
  1

  2
C:\Documents and Settings\basas\Application Data\Autodesk\AutoCAD 2005\R16.1\enu\plotters\Default Windows System Printer.pc3
  4

  6

 40
0.0
 41
0.0
 42
0.0
 43
0.0
 44
0.0
 45
0.0
 46
0.0
 47
0.0
 48
0.0
 49
0.0
140
0.0
141
0.0
142
1.0
143
1.0
 70
   688
 72
     0
 73
     0
 74
     5
  7

 75
    16
147
1.0
 76
     0
 77
     2
 78
   300
148
0.0
149
0.0
100
AcDbLayout
  1
布局1
 70
     1
 71
     1
 10
0.0
 20
0.0
 11
12.0
 21
9.0
 12
0.0
 22
0.0
 32
0.0
 14
0.0
 24
0.0
 34
0.0
 15
0.0
 25
0.0
 35
0.0
146
0.0
 13
0.0
 23
0.0
 33
0.0
 16
1.0
 26
0.0
 36
0.0
 17
0.0
 27
1.0
 37
0.0
 76
     0
330
D2
  0
LAYOUT
  5
D7
102
{ACAD_REACTORS
330
1A
102
}
330
1A
100
AcDbPlotSettings
  1

  2
C:\Documents and Settings\basas\Application Data\Autodesk\AutoCAD 2005\R16.1\enu\plotters\Default Windows System Printer.pc3
  4

  6

 40
0.0
 41
0.0
 42
0.0
 43
0.0
 44
0.0
 45
0.0
 46
0.0
 47
0.0
 48
0.0
 49
0.0
140
0.0
141
0.0
142
1.0
143
1.0
 70
   688
 72
     0
 73
     0
 74
     5
  7

 75
    16
147
1.0
 76
     0
 77
     2
 78
   300
148
0.0
149
0.0
100
AcDbLayout
  1
布局2
 70
     1
 71
     2
 10
0.0
 20
0.0
 11
12.0
 21
9.0
 12
0.0
 22
0.0
 32
0.0
 14
0.0
 24
0.0
 34
0.0
 15
0.0
 25
0.0
 35
0.0
146
0.0
 13
0.0
 23
0.0
 33
0.0
 16
1.0
 26
0.0
 36
0.0
 17
0.0
 27
1.0
 37
0.0
 76
     0
330
D6
  0
MATERIAL
  5
ED
102
{ACAD_XDICTIONARY
360
1F9
102
}
102
{ACAD_REACTORS
330
6A
102
}
330
6A
100
AcDbMaterial
  1
ByBlock
 94
       63
  0
MATERIAL
  5
EC
102
{ACAD_XDICTIONARY
360
1F7
102
}
102
{ACAD_REACTORS
330
6A
102
}
330
6A
100
AcDbMaterial
  1
ByLayer
 94
       63
  0
MATERIAL
  5
EE
102
{ACAD_XDICTIONARY
360
173
102
}
102
{ACAD_REACTORS
330
6A
102
}
330
6A
100
AcDbMaterial
  1
Global
 43
0.0007999999797903
 43
0.0
 43
0.0
 43
0.0
 43
0.0
 43
0.0007999999797903
 43
0.0
 43
0.0
 43
0.0
 43
0.0
 43
1.0
 43
0.0
 43
0.0
 43
0.0
 43
0.0
 43
1.0
 49
0.0007999999797903
 49
0.0
 49
0.0
 49
0.0
 49
0.0
 49
0.0007999999797903
 49
0.0
 49
0.0
 49
0.0
 49
0.0
 49
1.0
 49
0.0
 49
0.0
 49
0.0
 49
0.0
 49
1.0
142
0.0007999999797903
142
0.0
142
0.0
142
0.0
142
0.0
142
0.0007999999797903
142
0.0
142
0.0
142
0.0
142
0.0
142
1.0
142
0.0
142
0.0
142
0.0
142
0.0
142
1.0
144
0.0007999999797903
144
0.0
144
0.0
144
0.0
144
0.0
144
0.0007999999797903
144
0.0
144
0.0
144
0.0
144
0.0
144
1.0
144
0.0
144
0.0
144
0.0
144
0.0
144
1.0
 94
       63
1001
ACAD
1070
    -1
1070
     3
1070
     0
1000

1071
        0
1070
     0
  0
MLEADERSTYLE
  5
13B
102
{ACAD_REACTORS
330
12D
102
}
330
12D
100
AcDbMLeaderStyle
179
     2
170
     2
171
     1
172
     0
 90
        2
 40
0.0
 41
0.0
173
     1
 91
-1056964608
340
14
 92
       -2
290
     1
 42
2.0
291
     1
 43
8.0
  3
Standard
 44
4.0
300

342
11
174
     1
178
     1
175
     1
176
     0
 93
-1056964608
 45
4.0
292
     0
297
     0
 46
4.0
 94
-1056964608
 47
1.0
 49
1.0
140
1.0
293
     1
141
0.0
294
     1
177
     0
142
1.0
295
     0
296
     1
143
3.75
271
     0
272
     9
273
     9
298
     0
  0
MLEADERSTYLE
  5
12E
102
{ACAD_REACTORS
330
12D
102
}
330
12D
100
AcDbMLeaderStyle
179
     2
170
     2
171
     1
172
     0
 90
        2
 40
0.0
 41
0.0
173
     1
 91
-1056964608
340
14
 92
       -2
290
     1
 42
2.0
291
     1
 43
8.0
  3
Standard
 44
4.0
300

342
11
174
     1
178
     1
175
     1
176
     0
 93
-1056964608
 45
4.0
292
     0
297
     0
 46
4.0
 94
-1056964608
 47
1.0
 49
1.0
140
1.0
293
     1
141
0.0
294
     1
177
     0
142
1.0
295
     0
296
     0
143
3.75
271
     0
272
     9
273
     9
298
     0
  0
MLEADERSTYLE
  5
7A7
102
{ACAD_REACTORS
330
7E6
330
7E7
330
12D
330
83E
330
83F
102
}
330
12D
100
AcDbMLeaderStyle
179
     2
170
     2
171
     1
172
     0
 90
        2
 40
0.0
 41
0.0
173
     1
 91
-1073741824
340
14
 92
       -2
290
     1
 42
0.0
291
     1
 43
0.5
  3
Standard
 44
4.0
300

342
2CB
174
     5
178
     5
175
     1
176
     0
 93
-1023410173
 45
2.5
292
     0
297
     1
 46
0.18
 94
-1056964608
 47
1.0
 49
1.0
140
1.0
293
     1
141
0.0
294
     1
177
     0
142
1.0
295
     0
296
     0
143
1.0
271
     0
272
     9
273
     9
298
     0
  0
MLINESTYLE
  5
18
102
{ACAD_REACTORS
330
17
102
}
330
17
100
AcDbMlineStyle
  2
STANDARD
 70
     0
  3

 62
   256
 51
90.0
 52
90.0
 71
     2
 49
0.5
 62
   256
  6
BYLAYER
 49
-0.5
 62
   256
  6
BYLAYER
  0
ACDBPLACEHOLDER
  5
F
102
{ACAD_REACTORS
330
E
102
}
330
E
  0
RAPIDRTRENDERSETTINGS
  5
50A
102
{ACAD_REACTORS
330
508
102
}
330
508
100
AcDbRenderSettings
 90
        2
  1
中
290
     1
290
     0
290
     1
290
     1
  1

  1
应用 5 个渲染级别
 90
        1
100
AcDbRapidRTRenderSettings
 90
        3
 70
     0
 90
        5
 90
        1
 70
     1
 70
     2
 40
3.0
 40
3.0
290
     1
  0
RAPIDRTRENDERSETTINGS
  5
509
102
{ACAD_REACTORS
330
508
102
}
330
508
100
AcDbRenderSettings
 90
        2
  1
低
290
     1
290
     0
290
     1
290
     1
  1

  1
应用 1 个渲染级别
 90
        0
100
AcDbRapidRTRenderSettings
 90
        3
 70
     0
 90
        1
 90
        1
 70
     0
 70
     2
 40
3.0
 40
3.0
290
     1
  0
RAPIDRTRENDERSETTINGS
  5
50D
102
{ACAD_REACTORS
330
508
102
}
330
508
100
AcDbRenderSettings
 90
        2
  1
午餐质量
290
     1
290
     0
290
     1
290
     1
  1

  1
渲染 60 分钟
 90
        4
100
AcDbRapidRTRenderSettings
 90
        3
 70
     1
 90
        1
 90
       60
 70
     2
 70
     2
 40
3.0
 40
3.0
290
     1
  0
RAPIDRTRENDERSETTINGS
  5
50E
102
{ACAD_REACTORS
330
508
102
}
330
508
100
AcDbRenderSettings
 90
        2
  1
夜间质量
290
     1
290
     0
290
     1
290
     1
  1

  1
渲染 12 小时
 90
        5
100
AcDbRapidRTRenderSettings
 90
        3
 70
     1
 90
        1
 90
      720
 70
     2
 70
     2
 40
3.0
 40
3.0
290
     1
  0
RAPIDRTRENDERSETTINGS
  5
50C
102
{ACAD_REACTORS
330
508
102
}
330
508
100
AcDbRenderSettings
 90
        2
  1
茶歇质量
290
     1
290
     0
290
     1
290
     1
  1

  1
渲染 10 分钟
 90
        3
100
AcDbRapidRTRenderSettings
 90
        3
 70
     1
 90
        1
 90
       10
 70
     1
 70
     2
 40
3.0
 40
3.0
290
     1
  0
RAPIDRTRENDERSETTINGS
  5
50B
102
{ACAD_REACTORS
330
508
102
}
330
508
100
AcDbRenderSettings
 90
        2
  1
高
290
     1
290
     0
290
     1
290
     1
  1

  1
应用 10 个渲染级别
 90
        2
100
AcDbRapidRTRenderSettings
 90
        3
 70
     0
 90
       10
 90
        1
 70
     2
 70
     2
 40
3.0
 40
3.0
290
     1
  0
SCALE
  5
10D
102
{ACAD_REACTORS
330
10C
102
}
330
10C
100
AcDbScale
 70
     0
300
1:1
140
1.0
141
1.0
290
     1
  0
SCALE
  5
1BE
102
{ACAD_REACTORS
330
10C
102
}
330
10C
100
AcDbScale
 70
     0
300
1:2
140
1.0
141
2.0
290
     0
  0
SCALE
  5
1BF
102
{ACAD_REACTORS
330
10C
102
}
330
10C
100
AcDbScale
 70
     0
300
1:4
140
1.0
141
4.0
290
     0
  0
SCALE
  5
1C0
102
{ACAD_REACTORS
330
10C
102
}
330
10C
100
AcDbScale
 70
     0
300
1:5
140
1.0
141
5.0
290
     0
  0
SCALE
  5
1C1
102
{ACAD_REACTORS
330
10C
102
}
330
10C
100
AcDbScale
 70
     0
300
1:8
140
1.0
141
8.0
290
     0
  0
SCALE
  5
1C2
102
{ACAD_REACTORS
330
10C
102
}
330
10C
100
AcDbScale
 70
     0
300
1:10
140
1.0
141
10.0
290
     0
  0
SCALE
  5
1C3
102
{ACAD_REACTORS
330
10C
102
}
330
10C
100
AcDbScale
 70
     0
300
1:16
140
1.0
141
16.0
290
     0
  0
SCALE
  5
1C4
102
{ACAD_REACTORS
330
10C
102
}
330
10C
100
AcDbScale
 70
     0
300
1:20
140
1.0
141
20.0
290
     0
  0
SCALE
  5
1C5
102
{ACAD_REACTORS
330
10C
102
}
330
10C
100
AcDbScale
 70
     0
300
1:30
140
1.0
141
30.0
290
     0
  0
SCALE
  5
1C6
102
{ACAD_REACTORS
330
10C
102
}
330
10C
100
AcDbScale
 70
     0
300
1:40
140
1.0
141
40.0
290
     0
  0
SCALE
  5
1C7
102
{ACAD_REACTORS
330
10C
102
}
330
10C
100
AcDbScale
 70
     0
300
1:50
140
1.0
141
50.0
290
     0
  0
SCALE
  5
1C8
102
{ACAD_REACTORS
330
10C
102
}
330
10C
100
AcDbScale
 70
     0
300
1:100
140
1.0
141
100.0
290
     0
  0
SCALE
  5
1C9
102
{ACAD_REACTORS
330
10C
102
}
330
10C
100
AcDbScale
 70
     0
300
2:1
140
2.0
141
1.0
290
     0
  0
SCALE
  5
1CA
102
{ACAD_REACTORS
330
10C
102
}
330
10C
100
AcDbScale
 70
     0
300
4:1
140
4.0
141
1.0
290
     0
  0
SCALE
  5
1CB
102
{ACAD_REACTORS
330
10C
102
}
330
10C
100
AcDbScale
 70
     0
300
8:1
140
8.0
141
1.0
290
     0
  0
SCALE
  5
1CC
102
{ACAD_REACTORS
330
10C
102
}
330
10C
100
AcDbScale
 70
     0
300
10:1
140
10.0
141
1.0
290
     0
  0
SCALE
  5
1CD
102
{ACAD_REACTORS
330
10C
102
}
330
10C
100
AcDbScale
 70
     0
300
100:1
140
100.0
141
1.0
290
     0
  0
ACDBSECTIONVIEWSTYLE
  5
21A
102
{ACAD_REACTORS
330
219
102
}
330
219
100
AcDbModelDocViewStyle
 70
     0
  3
Metric50
290
     0
300
Metric50
 90
        0
100
AcDbSectionViewStyle
 70
     0
 71
     0
 90
      102
 71
     1
340
11
 62
   256
 40
5.0
340
0
340
0
 62
   256
 40
5.0
300
I, O, Q, S, X, Z
 40
10.0
 90
        0
 40
2.5
 90
        0
 71
     2
340
16
 90
       25
 62
   256
340
16
 90
       50
 62
   256
 40
5.0
 40
2.5
 40
5.0
 71
     3
340
11
 62
   256
 40
5.0
 90
        0
 40
15.0
 90
        1
300
%<\AcVar ViewSectionStartId>%-%<\AcVar ViewSectionEndId>% (%<\AcVar ViewScale \f "%sn">%)
 71
     4
 62
   256
 62
   257
300
ANSI31
 40
1.0
 90
        0
290
     0
290
     0
 90
        6
 40
0.0
 40
1.570796326794896
 40
0.2617993877991494
 40
1.308996938995747
 40
-0.2617993877991494
 40
1.832595714594046
  0
TABLESTYLE
  5
7F
102
{ACAD_XDICTIONARY
360
162
102
}
102
{ACAD_REACTORS
330
7E
330
7CB
330
823
102
}
330
7E
100
AcDbTableStyle
280
     0
  3
Standard
 70
     0
 71
     0
 40
1.5
 41
1.5
280
     0
281
     0
  7
Standard
140
4.5
170
     2
 62
     0
 63
     7
283
     0
 90
      512
 91
        0
  1

274
    -2
284
     1
 64
     0
275
    -2
285
     1
 65
     0
276
    -2
286
     1
 66
     0
277
    -2
287
     1
 67
     0
278
    -2
288
     1
 68
     0
279
    -2
289
     1
 69
     0
  7
Standard
140
6.0
170
     5
 62
     0
 63
     7
283
     0
 90
      512
 91
        0
  1

274
    -2
284
     1
 64
     0
275
    -2
285
     1
 65
     0
276
    -2
286
     1
 66
     0
277
    -2
287
     1
 67
     0
278
    -2
288
     1
 68
     0
279
    -2
289
     1
 69
     0
  7
Standard
140
4.5
170
     5
 62
     0
 63
     7
283
     0
 90
      512
 91
        0
  1

274
    -2
284
     1
 64
     0
275
    -2
285
     1
 65
     0
276
    -2
286
     1
 66
     0
277
    -2
287
     1
 67
     0
278
    -2
288
     1
 68
     0
279
    -2
289
     1
 69
     0
  0
VISUALSTYLE
  5
F5
102
{ACAD_REACTORS
330
EF
102
}
330
EF
100
AcDbVisualStyle
  2
2dWireframe
 70
     4
177
     3
291
     0
 70
    58
 90
        0
176
     1
 90
        2
176
     1
 90
        1
176
     1
 90
        0
176
     1
 40
0.6
176
     1
 40
30.0
176
     1
 62
     7
420
 16777215
176
     1
 90
        1
176
     1
 90
        4
176
     1
 62
     7
176
     1
 62
   257
176
     1
 90
        1
176
     1
 90
        1
176
     1
 40
1.0
176
     1
 90
        0
176
     1
 62
   257
176
     1
 40
1.0
176
     1
 90
        1
176
     1
 90
        6
176
     1
 90
        2
176
     1
 62
     7
176
     1
 90
        5
176
     1
 90
        0
176
     1
 90
        0
176
     1
290
     0
176
     1
 90
        1
176
     1
 40
0.0
176
     1
 90
        0
176
     1
290
     1
176
     1
290
     1
176
     1
290
     0
176
     1
290
     0
176
     1
290
     0
176
     1
290
     0
176
     1
290
     0
176
     1
290
     0
176
     1
290
     0
176
     1
 90
       50
176
     1
 40
0.0
176
     1
 40
1.0
176
     1
 90
        0
176
     1
 62
    18
420
        0
176
     1
 90
       50
176
     1
 90
        3
176
     1
 62
     5
420
      255
176
     1
290
     0
176
     1
 90
       50
176
     1
 90
       50
176
     1
 90
       50
176
     1
290
     0
176
     1
 90
       50
176
     1
 62
   256
176
     0
 40
1.0
176
     0
 90
        2
176
     1
  1
strokes_ogs.tif
176
     1
290
     0
176
     1
 40
1.0
176
     1
 40
1.0
176
     1
  0
VISUALSTYLE
  5
F4
102
{ACAD_REACTORS
330
EF
102
}
330
EF
100
AcDbVisualStyle
  2
Basic
 70
     7
177
     3
291
     1
 70
    58
 90
        1
176
     1
 90
        0
176
     1
 90
        1
176
     1
 90
        0
176
     1
 40
0.6
176
     1
 40
30.0
176
     1
 62
     7
420
 16777215
176
     1
 90
        0
176
     1
 90
        4
176
     1
 62
     7
176
     1
 62
   257
176
     1
 90
        1
176
     1
 90
        1
176
     1
 40
1.0
176
     1
 90
        8
176
     1
 62
     7
176
     1
 40
1.0
176
     1
 90
        1
176
     1
 90
        6
176
     1
 90
        2
176
     1
 62
     7
176
     1
 90
        5
176
     1
 90
        0
176
     1
 90
        0
176
     1
290
     0
176
     1
 90
        1
176
     1
 40
0.0
176
     1
 90
        0
176
     1
290
     0
176
     1
290
     1
176
     1
290
     1
176
     1
290
     0
176
     1
290
     0
176
     1
290
     0
176
     1
290
     0
176
     1
290
     0
176
     1
290
     0
176
     1
 90
       50
176
     1
 40
0.0
176
     1
 40
1.0
176
     1
 90
        0
176
     1
 62
    18
420
        0
176
     1
 90
       50
176
     1
 90
        3
176
     1
 62
     5
420
      255
176
     1
290
     0
176
     1
 90
       50
176
     1
 90
       50
176
     1
 90
       50
176
     1
290
     0
176
     1
 90
       50
176
     1
 62
   256
176
     0
 40
1.0
176
     0
 90
        2
176
     1
  1
strokes_ogs.tif
176
     1
290
     0
176
     1
 40
1.0
176
     1
 40
1.0
176
     1
  0
VISUALSTYLE
  5
FB
102
{ACAD_REACTORS
330
EF
102
}
330
EF
100
AcDbVisualStyle
  2
Brighten
 70
    12
177
     3
291
     1
 70
    58
 90
        2
176
     1
 90
        2
176
     1
 90
        1
176
     1
 90
        0
176
     1
 40
0.6
176
     1
 40
30.0
176
     1
 62
     7
420
 16777215
176
     1
 90
        1
176
     1
 90
        4
176
     1
 62
     7
176
     1
 62
   257
176
     1
 90
        1
176
     1
 90
        1
176
     1
 40
1.0
176
     1
 90
        8
176
     1
 62
     7
176
     1
 40
1.0
176
     1
 90
        1
176
     1
 90
        6
176
     1
 90
        2
176
     1
 62
     7
176
     1
 90
        5
176
     1
 90
        0
176
     1
 90
        0
176
     1
290
     0
176
     1
 90
        1
176
     1
 40
50.0
176
     1
 90
        0
176
     1
290
     0
176
     1
290
     1
176
     1
290
     1
176
     1
290
     0
176
     1
290
     0
176
     1
290
     0
176
     1
290
     0
176
     1
290
     0
176
     1
290
     0
176
     1
 90
       50
176
     1
 40
0.0
176
     1
 40
1.0
176
     1
 90
        0
176
     1
 62
    18
420
        0
176
     1
 90
       50
176
     1
 90
        3
176
     1
 62
     5
420
      255
176
     1
290
     0
176
     1
 90
       50
176
     1
 90
       50
176
     1
 90
       50
176
     1
290
     0
176
     1
 90
       50
176
     1
 62
   256
176
     0
 40
1.0
176
     0
 90
        2
176
     1
  1
strokes_ogs.tif
176
     1
290
     0
176
     1
 40
1.0
176
     1
 40
1.0
176
     1
  0
VISUALSTYLE
  5
FF
102
{ACAD_REACTORS
330
EF
102
}
330
EF
100
AcDbVisualStyle
  2
ColorChange
 70
    16
177
     3
291
     1
 70
    58
 90
        2
176
     1
 90
        2
176
     1
 90
        3
176
     1
 90
        0
176
     1
 40
0.6
176
     1
 40
30.0
176
     1
 62
     8
420
  8421504
176
     1
 90
        1
176
     1
 90
        4
176
     1
 62
     7
176
     1
 62
   257
176
     1
 90
        1
176
     1
 90
        1
176
     1
 40
1.0
176
     1
 90
        8
176
     1
 62
     8
420
  8421504
176
     1
 40
1.0
176
     1
 90
        1
176
     1
 90
        6
176
     1
 90
        2
176
     1
 62
     7
176
     1
 90
        5
176
     1
 90
        0
176
     1
 90
        0
176
     1
290
     0
176
     1
 90
        1
176
     1
 40
0.0
176
     1
 90
        0
176
     1
290
     0
176
     1
290
     1
176
     1
290
     1
176
     1
290
     0
176
     1
290
     0
176
     1
290
     0
176
     1
290
     0
176
     1
290
     0
176
     1
290
     0
176
     1
 90
       50
176
     1
 40
0.0
176
     1
 40
1.0
176
     1
 90
        0
176
     1
 62
    18
420
        0
176
     1
 90
       50
176
     1
 90
        3
176
     1
 62
     5
420
      255
176
     1
290
     0
176
     1
 90
       50
176
     1
 90
       50
176
     1
 90
       50
176
     1
290
     0
176
     1
 90
       50
176
     1
 62
   256
176
     0
 40
1.0
176
     0
 90
        2
176
     1
  1
strokes_ogs.tif
176
     1
290
     0
176
     1
 40
1.0
176
     1
 40
1.0
176
     1
  0
VISUALSTYLE
  5
F8
102
{ACAD_REACTORS
330
EF
102
}
330
EF
100
AcDbVisualStyle
  2
Conceptual
 70
     9
177
     3
291
     0
 70
    58
 90
        3
176
     1
 90
        2
176
     1
 90
        1
176
     1
 90
        0
176
     1
 40
0.6
176
     1
 40
30.0
176
     1
 62
     7
420
 16777215
176
     1
 90
        2
176
     1
 90
        2
176
     1
 62
     7
176
     1
 62
   257
176
     1
 90
        1
176
     1
 90
        1
176
     1
 40
40.0
176
     1
 90
        8
176
     1
 62
     7
176
     1
 40
1.0
176
     1
 90
        1
176
     1
 90
        6
176
     1
 90
        2
176
     1
 62
     7
176
     1
 90
        3
176
     1
 90
        0
176
     1
 90
        0
176
     1
290
     0
176
     1
 90
        1
176
     1
 40
0.0
176
     1
 90
        0
176
     1
290
     0
176
     1
290
     1
176
     1
290
     1
176
     1
290
     0
176
     1
290
     0
176
     1
290
     0
176
     1
290
     0
176
     1
290
     0
176
     1
290
     0
176
     1
 90
       50
176
     1
 40
0.0
176
     1
 40
1.0
176
     1
 90
        0
176
     1
 62
    18
420
        0
176
     1
 90
       50
176
     1
 90
        3
176
     1
 62
     5
420
      255
176
     1
290
     0
176
     1
 90
       50
176
     1
 90
       50
176
     1
 90
       50
176
     1
290
     0
176
     1
 90
       50
176
     1
 62
   256
176
     0
 40
1.0
176
     0
 90
        2
176
     1
  1
strokes_ogs.tif
176
     1
290
     0
176
     1
 40
1.0
176
     1
 40
1.0
176
     1
  0
VISUALSTYLE
  5
FA
102
{ACAD_REACTORS
330
EF
102
}
330
EF
100
AcDbVisualStyle
  2
Dim
 70
    11
177
     3
291
     1
 70
    58
 90
        2
176
     1
 90
        2
176
     1
 90
        1
176
     1
 90
        0
176
     1
 40
0.6
176
     1
 40
30.0
176
     1
 62
     7
420
 16777215
176
     1
 90
        1
176
     1
 90
        4
176
     1
 62
     7
176
     1
 62
   257
176
     1
 90
        1
176
     1
 90
        1
176
     1
 40
1.0
176
     1
 90
        8
176
     1
 62
     7
176
     1
 40
1.0
176
     1
 90
        1
176
     1
 90
        6
176
     1
 90
        2
176
     1
 62
     7
176
     1
 90
        5
176
     1
 90
        0
176
     1
 90
        0
176
     1
290
     0
176
     1
 90
        1
176
     1
 40
-50.0
176
     1
 90
        0
176
     1
290
     0
176
     1
290
     1
176
     1
290
     1
176
     1
290
     0
176
     1
290
     0
176
     1
290
     0
176
     1
290
     0
176
     1
290
     0
176
     1
290
     0
176
     1
 90
       50
176
     1
 40
0.0
176
     1
 40
1.0
176
     1
 90
        0
176
     1
 62
    18
420
        0
176
     1
 90
       50
176
     1
 90
        3
176
     1
 62
     5
420
      255
176
     1
290
     0
176
     1
 90
       50
176
     1
 90
       50
176
     1
 90
       50
176
     1
290
     0
176
     1
 90
       50
176
     1
 62
   256
176
     0
 40
1.0
176
     0
 90
        2
176
     1
  1
strokes_ogs.tif
176
     1
290
     0
176
     1
 40
1.0
176
     1
 40
1.0
176
     1
  0
VISUALSTYLE
  5
1E6
102
{ACAD_REACTORS
330
EF
102
}
330
EF
100
AcDbVisualStyle
  2
EdgeColorOff
 70
    22
177
     3
291
     1
 70
    58
 90
        2
176
     0
 90
        2
176
     0
 90
        0
176
     0
 90
        0
176
     0
 40
0.6
176
     0
 40
30.0
176
     0
 62
     7
420
 16777215
176
     0
 90
        1
176
     0
 90
        4
176
     0
 62
     7
176
     0
 62
   257
176
     0
 90
        1
176
     0
 90
        1
176
     0
 40
1.0
176
     0
 90
        8
176
     2
 62
     7
176
     0
 40
1.0
176
     0
 90
        1
176
     0
 90
        6
176
     0
 90
        2
176
     0
 62
     7
176
     0
 90
        5
176
     0
 90
        0
176
     0
 90
        0
176
     0
290
     0
176
     0
 90
        1
176
     0
 40
0.0
176
     0
 90
        0
176
     0
290
     0
176
     1
290
     1
176
     1
290
     1
176
     1
290
     0
176
     1
290
     0
176
     1
290
     0
176
     1
290
     0
176
     1
290
     0
176
     1
290
     0
176
     1
 90
       50
176
     1
 40
0.0
176
     1
 40
1.0
176
     1
 90
        0
176
     1
 62
    18
420
        0
176
     1
 90
       50
176
     1
 90
        3
176
     1
 62
     5
420
      255
176
     1
290
     0
176
     1
 90
       50
176
     1
 90
       50
176
     1
 90
       50
176
     1
290
     0
176
     1
 90
       50
176
     1
 62
   256
176
     0
 40
1.0
176
     0
 90
        2
176
     1
  1
strokes_ogs.tif
176
     1
290
     0
176
     1
 40
1.0
176
     1
 40
1.0
176
     1
  0
VISUALSTYLE
  5
FE
102
{ACAD_REACTORS
330
EF
102
}
330
EF
100
AcDbVisualStyle
  2
Facepattern
 70
    15
177
     3
291
     1
 70
    58
 90
        2
176
     1
 90
        2
176
     1
 90
        1
176
     1
 90
        0
176
     1
 40
0.6
176
     1
 40
30.0
176
     1
 62
     7
420
 16777215
176
     1
 90
        1
176
     1
 90
        4
176
     1
 62
     7
176
     1
 62
   257
176
     1
 90
        1
176
     1
 90
        1
176
     1
 40
1.0
176
     1
 90
        8
176
     1
 62
     7
176
     1
 40
1.0
176
     1
 90
        1
176
     1
 90
        6
176
     1
 90
        2
176
     1
 62
     7
176
     1
 90
        5
176
     1
 90
        0
176
     1
 90
        0
176
     1
290
     0
176
     1
 90
        1
176
     1
 40
0.0
176
     1
 90
        0
176
     1
290
     0
176
     1
290
     1
176
     1
290
     1
176
     1
290
     0
176
     1
290
     0
176
     1
290
     0
176
     1
290
     0
176
     1
290
     0
176
     1
290
     0
176
     1
 90
       50
176
     1
 40
0.0
176
     1
 40
1.0
176
     1
 90
        0
176
     1
 62
    18
420
        0
176
     1
 90
       50
176
     1
 90
        3
176
     1
 62
     5
420
      255
176
     1
290
     0
176
     1
 90
       50
176
     1
 90
       50
176
     1
 90
       50
176
     1
290
     0
176
     1
 90
       50
176
     1
 62
   256
176
     0
 40
1.0
176
     0
 90
        2
176
     1
  1
strokes_ogs.tif
176
     1
290
     0
176
     1
 40
1.0
176
     1
 40
1.0
176
     1
  0
VISUALSTYLE
  5
F0
102
{ACAD_REACTORS
330
EF
102
}
330
EF
100
AcDbVisualStyle
  2
Flat
 70
     0
177
     3
291
     1
 70
    58
 90
        2
176
     1
 90
        1
176
     1
 90
        1
176
     1
 90
        2
176
     1
 40
0.6
176
     1
 40
30.0
176
     1
 62
     7
420
 16777215
176
     1
 90
        0
176
     1
 90
        0
176
     1
 62
     7
176
     1
 62
   257
176
     1
 90
        1
176
     1
 90
        1
176
     1
 40
1.0
176
     1
 90
        8
176
     1
 62
     7
176
     1
 40
1.0
176
     1
 90
        1
176
     1
 90
        6
176
     1
 90
        2
176
     1
 62
     7
176
     1
 90
        5
176
     1
 90
        0
176
     1
 90
        0
176
     1
290
     0
176
     1
 90
       13
176
     1
 40
0.0
176
     1
 90
        0
176
     1
290
     0
176
     1
290
     1
176
     1
290
     1
176
     1
290
     0
176
     1
290
     0
176
     1
290
     0
176
     1
290
     0
176
     1
290
     0
176
     1
290
     0
176
     1
 90
       50
176
     1
 40
0.0
176
     1
 40
1.0
176
     1
 90
        0
176
     1
 62
    18
420
        0
176
     1
 90
       50
176
     1
 90
        3
176
     1
 62
     5
420
      255
176
     1
290
     0
176
     1
 90
       50
176
     1
 90
       50
176
     1
 90
       50
176
     1
290
     0
176
     1
 90
       50
176
     1
 62
   256
176
     0
 40
1.0
176
     0
 90
        2
176
     1
  1
strokes_ogs.tif
176
     1
290
     0
176
     1
 40
1.0
176
     1
 40
1.0
176
     1
  0
VISUALSTYLE
  5
F1
102
{ACAD_REACTORS
330
EF
102
}
330
EF
100
AcDbVisualStyle
  2
FlatWithEdges
 70
     1
177
     3
291
     1
 70
    58
 90
        2
176
     1
 90
        1
176
     1
 90
        1
176
     1
 90
        2
176
     1
 40
0.6
176
     1
 40
30.0
176
     1
 62
     7
420
 16777215
176
     1
 90
        1
176
     1
 90
        0
176
     1
 62
     7
176
     1
 62
   257
176
     1
 90
        1
176
     1
 90
        1
176
     1
 40
1.0
176
     1
 90
        0
176
     1
 62
   257
176
     1
 40
1.0
176
     1
 90
        1
176
     1
 90
        6
176
     1
 90
        2
176
     1
 62
     7
176
     1
 90
        5
176
     1
 90
        0
176
     1
 90
        0
176
     1
290
     0
176
     1
 90
       13
176
     1
 40
0.0
176
     1
 90
        0
176
     1
290
     0
176
     1
290
     1
176
     1
290
     1
176
     1
290
     0
176
     1
290
     0
176
     1
290
     0
176
     1
290
     0
176
     1
290
     0
176
     1
290
     0
176
     1
 90
       50
176
     1
 40
0.0
176
     1
 40
1.0
176
     1
 90
        0
176
     1
 62
    18
420
        0
176
     1
 90
       50
176
     1
 90
        3
176
     1
 62
     5
420
      255
176
     1
290
     0
176
     1
 90
       50
176
     1
 90
       50
176
     1
 90
       50
176
     1
290
     0
176
     1
 90
       50
176
     1
 62
   256
176
     0
 40
1.0
176
     0
 90
        2
176
     1
  1
strokes_ogs.tif
176
     1
290
     0
176
     1
 40
1.0
176
     1
 40
1.0
176
     1
  0
VISUALSTYLE
  5
F2
102
{ACAD_REACTORS
330
EF
102
}
330
EF
100
AcDbVisualStyle
  2
Gouraud
 70
     2
177
     3
291
     1
 70
    58
 90
        2
176
     1
 90
        2
176
     1
 90
        1
176
     1
 90
        2
176
     1
 40
0.6
176
     1
 40
30.0
176
     1
 62
     7
420
 16777215
176
     1
 90
        0
176
     1
 90
        0
176
     1
 62
     7
176
     1
 62
   257
176
     1
 90
        1
176
     1
 90
        1
176
     1
 40
1.0
176
     1
 90
        0
176
     1
 62
     7
176
     1
 40
1.0
176
     1
 90
        1
176
     1
 90
        6
176
     1
 90
        2
176
     1
 62
     7
176
     1
 90
        5
176
     1
 90
        0
176
     1
 90
        0
176
     1
290
     0
176
     1
 90
       13
176
     1
 40
0.0
176
     1
 90
        0
176
     1
290
     0
176
     1
290
     1
176
     1
290
     1
176
     1
290
     0
176
     1
290
     0
176
     1
290
     0
176
     1
290
     0
176
     1
290
     0
176
     1
290
     0
176
     1
 90
       50
176
     1
 40
0.0
176
     1
 40
1.0
176
     1
 90
        0
176
     1
 62
    18
420
        0
176
     1
 90
       50
176
     1
 90
        3
176
     1
 62
     5
420
      255
176
     1
290
     0
176
     1
 90
       50
176
     1
 90
       50
176
     1
 90
       50
176
     1
290
     0
176
     1
 90
       50
176
     1
 62
   256
176
     0
 40
1.0
176
     0
 90
        2
176
     1
  1
strokes_ogs.tif
176
     1
290
     0
176
     1
 40
1.0
176
     1
 40
1.0
176
     1
  0
VISUALSTYLE
  5
F3
102
{ACAD_REACTORS
330
EF
102
}
330
EF
100
AcDbVisualStyle
  2
GouraudWithEdges
 70
     3
177
     3
291
     1
 70
    58
 90
        2
176
     1
 90
        2
176
     1
 90
        1
176
     1
 90
        2
176
     1
 40
0.6
176
     1
 40
30.0
176
     1
 62
     7
420
 16777215
176
     1
 90
        1
176
     1
 90
        0
176
     1
 62
     7
176
     1
 62
   257
176
     1
 90
        1
176
     1
 90
        1
176
     1
 40
1.0
176
     1
 90
        0
176
     1
 62
   257
176
     1
 40
1.0
176
     1
 90
        1
176
     1
 90
        6
176
     1
 90
        2
176
     1
 62
     7
176
     1
 90
        5
176
     1
 90
        0
176
     1
 90
        0
176
     1
290
     0
176
     1
 90
       13
176
     1
 40
0.0
176
     1
 90
        0
176
     1
290
     0
176
     1
290
     1
176
     1
290
     1
176
     1
290
     0
176
     1
290
     0
176
     1
290
     0
176
     1
290
     0
176
     1
290
     0
176
     1
290
     0
176
     1
 90
       50
176
     1
 40
0.0
176
     1
 40
1.0
176
     1
 90
        0
176
     1
 62
    18
420
        0
176
     1
 90
       50
176
     1
 90
        3
176
     1
 62
     5
420
      255
176
     1
290
     0
176
     1
 90
       50
176
     1
 90
       50
176
     1
 90
       50
176
     1
290
     0
176
     1
 90
       50
176
     1
 62
   256
176
     0
 40
1.0
176
     0
 90
        2
176
     1
  1
strokes_ogs.tif
176
     1
290
     0
176
     1
 40
1.0
176
     1
 40
1.0
176
     1
  0
VISUALSTYLE
  5
F7
102
{ACAD_REACTORS
330
EF
102
}
330
EF
100
AcDbVisualStyle
  2
Hidden
 70
     6
177
     3
291
     0
 70
    58
 90
        1
176
     1
 90
        2
176
     1
 90
        2
176
     1
 90
        0
176
     1
 40
0.6
176
     1
 40
30.0
176
     1
 62
     7
420
 16777215
176
     1
 90
        2
176
     1
 90
        2
176
     1
 62
     7
176
     1
 62
   257
176
     1
 90
        2
176
     1
 90
        1
176
     1
 40
40.0
176
     1
 90
        0
176
     1
 62
   257
176
     1
 40
1.0
176
     1
 90
        1
176
     1
 90
        6
176
     1
 90
        2
176
     1
 62
     7
176
     1
 90
        3
176
     1
 90
        0
176
     1
 90
        0
176
     1
290
     0
176
     1
 90
        1
176
     1
 40
0.0
176
     1
 90
        0
176
     1
290
     0
176
     1
290
     1
176
     1
290
     1
176
     1
290
     0
176
     1
290
     0
176
     1
290
     0
176
     1
290
     0
176
     1
290
     0
176
     1
290
     0
176
     1
 90
       50
176
     1
 40
0.0
176
     1
 40
1.0
176
     1
 90
        0
176
     1
 62
    18
420
        0
176
     1
 90
       50
176
     1
 90
        3
176
     1
 62
     5
420
      255
176
     1
290
     0
176
     1
 90
       50
176
     1
 90
       50
176
     1
 90
       50
176
     1
290
     0
176
     1
 90
       50
176
     1
 62
   256
176
     0
 40
1.0
176
     0
 90
        2
176
     1
  1
strokes_ogs.tif
176
     1
290
     0
176
     1
 40
1.0
176
     1
 40
1.0
176
     1
  0
VISUALSTYLE
  5
1E4
102
{ACAD_REACTORS
330
EF
102
}
330
EF
100
AcDbVisualStyle
  2
JitterOff
 70
    20
177
     3
291
     1
 70
    58
 90
        2
176
     0
 90
        2
176
     0
 90
        0
176
     0
 90
        0
176
     0
 40
0.6
176
     0
 40
30.0
176
     0
 62
     7
420
 16777215
176
     0
 90
        1
176
     0
 90
        4
176
     0
 62
     7
176
     0
 62
   257
176
     0
 90
        1
176
     0
 90
        1
176
     0
 40
1.0
176
     0
 90
       10
176
     2
 62
     7
176
     0
 40
1.0
176
     0
 90
        1
176
     0
 90
        6
176
     0
 90
        2
176
     0
 62
     7
176
     0
 90
        5
176
     0
 90
        0
176
     0
 90
        0
176
     0
290
     0
176
     0
 90
        1
176
     0
 40
0.0
176
     0
 90
        0
176
     0
290
     0
176
     1
290
     1
176
     1
290
     1
176
     1
290
     0
176
     1
290
     0
176
     1
290
     0
176
     1
290
     0
176
     1
290
     0
176
     1
290
     0
176
     1
 90
       50
176
     1
 40
0.0
176
     1
 40
1.0
176
     1
 90
        0
176
     1
 62
    18
420
        0
176
     1
 90
       50
176
     1
 90
        3
176
     1
 62
     5
420
      255
176
     1
290
     0
176
     1
 90
       50
176
     1
 90
       50
176
     1
 90
       50
176
     1
290
     0
176
     1
 90
       50
176
     1
 62
   256
176
     0
 40
1.0
176
     0
 90
        2
176
     1
  1
strokes_ogs.tif
176
     1
290
     0
176
     1
 40
1.0
176
     1
 40
1.0
176
     1
  0
VISUALSTYLE
  5
FD
102
{ACAD_REACTORS
330
EF
102
}
330
EF
100
AcDbVisualStyle
  2
Linepattern
 70
    14
177
     3
291
     1
 70
    58
 90
        2
176
     1
 90
        2
176
     1
 90
        1
176
     1
 90
        0
176
     1
 40
0.6
176
     1
 40
30.0
176
     1
 62
     7
420
 16777215
176
     1
 90
        1
176
     1
 90
        4
176
     1
 62
     7
176
     1
 62
   257
176
     1
 90
        7
176
     1
 90
        7
176
     1
 40
1.0
176
     1
 90
        8
176
     1
 62
     7
176
     1
 40
1.0
176
     1
 90
        1
176
     1
 90
        6
176
     1
 90
        2
176
     1
 62
     7
176
     1
 90
        5
176
     1
 90
        0
176
     1
 90
        0
176
     1
290
     0
176
     1
 90
        1
176
     1
 40
0.0
176
     1
 90
        0
176
     1
290
     0
176
     1
290
     1
176
     1
290
     1
176
     1
290
     0
176
     1
290
     0
176
     1
290
     0
176
     1
290
     0
176
     1
290
     0
176
     1
290
     0
176
     1
 90
       50
176
     1
 40
0.0
176
     1
 40
1.0
176
     1
 90
        0
176
     1
 62
    18
420
        0
176
     1
 90
       50
176
     1
 90
        3
176
     1
 62
     5
420
      255
176
     1
290
     0
176
     1
 90
       50
176
     1
 90
       50
176
     1
 90
       50
176
     1
290
     0
176
     1
 90
       50
176
     1
 62
   256
176
     0
 40
1.0
176
     0
 90
        2
176
     1
  1
strokes_ogs.tif
176
     1
290
     0
176
     1
 40
1.0
176
     1
 40
1.0
176
     1
  0
VISUALSTYLE
  5
1E5
102
{ACAD_REACTORS
330
EF
102
}
330
EF
100
AcDbVisualStyle
  2
OverhangOff
 70
    21
177
     3
291
     1
 70
    58
 90
        2
176
     0
 90
        2
176
     0
 90
        0
176
     0
 90
        0
176
     0
 40
0.6
176
     0
 40
30.0
176
     0
 62
     7
420
 16777215
176
     0
 90
        1
176
     0
 90
        4
176
     0
 62
     7
176
     0
 62
   257
176
     0
 90
        1
176
     0
 90
        1
176
     0
 40
1.0
176
     0
 90
        9
176
     2
 62
     7
176
     0
 40
1.0
176
     0
 90
        1
176
     0
 90
        6
176
     0
 90
        2
176
     0
 62
     7
176
     0
 90
        5
176
     0
 90
        0
176
     0
 90
        0
176
     0
290
     0
176
     0
 90
        1
176
     0
 40
0.0
176
     0
 90
        0
176
     0
290
     0
176
     1
290
     1
176
     1
290
     1
176
     1
290
     0
176
     1
290
     0
176
     1
290
     0
176
     1
290
     0
176
     1
290
     0
176
     1
290
     0
176
     1
 90
       50
176
     1
 40
0.0
176
     1
 40
1.0
176
     1
 90
        0
176
     1
 62
    18
420
        0
176
     1
 90
       50
176
     1
 90
        3
176
     1
 62
     5
420
      255
176
     1
290
     0
176
     1
 90
       50
176
     1
 90
       50
176
     1
 90
       50
176
     1
290
     0
176
     1
 90
       50
176
     1
 62
   256
176
     0
 40
1.0
176
     0
 90
        2
176
     1
  1
strokes_ogs.tif
176
     1
290
     0
176
     1
 40
1.0
176
     1
 40
1.0
176
     1
  0
VISUALSTYLE
  5
F9
102
{ACAD_REACTORS
330
EF
102
}
330
EF
100
AcDbVisualStyle
  2
Realistic
 70
     8
177
     3
291
     0
 70
    58
 90
        2
176
     1
 90
        3
176
     1
 90
        0
176
     1
 90
        2
176
     1
 40
0.6
176
     1
 40
30.0
176
     1
 62
     7
420
 16777215
176
     1
 90
        0
176
     1
 90
        0
176
     1
 62
     7
176
     1
 62
   257
176
     1
 90
        1
176
     1
 90
        1
176
     1
 40
1.0
176
     1
 90
        8
176
     1
 62
   257
176
     1
 40
1.0
176
     1
 90
        1
176
     1
 90
        6
176
     1
 90
        2
176
     1
 62
     7
176
     1
 90
        3
176
     1
 90
        0
176
     1
 90
        0
176
     1
290
     0
176
     1
 90
       13
176
     1
 40
0.0
176
     1
 90
        0
176
     1
290
     0
176
     1
290
     1
176
     1
290
     1
176
     1
290
     0
176
     1
290
     0
176
     1
290
     0
176
     1
290
     0
176
     1
290
     0
176
     1
290
     0
176
     1
 90
       50
176
     1
 40
0.0
176
     1
 40
1.0
176
     1
 90
        0
176
     1
 62
    18
420
        0
176
     1
 90
       50
176
     1
 90
        3
176
     1
 62
     5
420
      255
176
     1
290
     0
176
     1
 90
       50
176
     1
 90
       50
176
     1
 90
       50
176
     1
290
     0
176
     1
 90
       50
176
     1
 62
   256
176
     0
 40
1.0
176
     0
 90
        2
176
     1
  1
strokes_ogs.tif
176
     1
290
     0
176
     1
 40
1.0
176
     1
 40
1.0
176
     1
  0
VISUALSTYLE
  5
1F3
102
{ACAD_REACTORS
330
EF
102
}
330
EF
100
AcDbVisualStyle
  2
Shaded
 70
    27
177
     3
291
     0
 70
    58
 90
        2
176
     1
 90
        2
176
     1
 90
        1
176
     1
 90
        2
176
     1
 40
0.6
176
     1
 40
30.0
176
     1
 62
     7
420
 16777215
176
     1
 90
        0
176
     1
 90
        4
176
     1
 62
     7
176
     1
 62
   257
176
     1
 90
        1
176
     1
 90
        1
176
     1
 40
1.0
176
     1
 90
        8
176
     1
 62
   257
176
     1
 40
1.0
176
     1
 90
        1
176
     1
 90
        6
176
     1
 90
        2
176
     1
 62
     8
420
  7895160
176
     1
 90
        3
176
     1
 90
        0
176
     1
 90
        0
176
     1
290
     0
176
     1
 90
        5
176
     1
 40
0.0
176
     1
 90
        0
176
     1
290
     0
176
     1
290
     1
176
     1
290
     1
176
     1
290
     0
176
     1
290
     0
176
     1
290
     0
176
     1
290
     0
176
     1
290
     0
176
     1
290
     0
176
     1
 90
       50
176
     1
 40
0.0
176
     1
 40
1.0
176
     1
 90
        0
176
     1
 62
    18
420
        0
176
     1
 90
       50
176
     1
 90
        3
176
     1
 62
     5
420
      255
176
     1
290
     0
176
     1
 90
       50
176
     1
 90
       50
176
     1
 90
       50
176
     1
290
     0
176
     1
 90
       50
176
     1
 62
   256
176
     0
 40
1.0
176
     0
 90
        2
176
     1
  1
strokes_ogs.tif
176
     1
290
     0
176
     1
 40
1.0
176
     1
 40
1.0
176
     1
  0
VISUALSTYLE
  5
1F2
102
{ACAD_REACTORS
330
EF
102
}
330
EF
100
AcDbVisualStyle
  2
Shaded with edges
 70
    26
177
     3
291
     0
 70
    58
 90
        2
176
     1
 90
        2
176
     1
 90
        1
176
     1
 90
        2
176
     1
 40
0.6
176
     1
 40
30.0
176
     1
 62
     7
420
 16777215
176
     1
 90
        1
176
     1
 90
        2
176
     1
 62
     7
176
     1
 62
   257
176
     1
 90
        2
176
     1
 90
        1
176
     1
 40
1.0
176
     1
 90
        8
176
     1
 62
   257
176
     1
 40
1.0
176
     1
 90
        1
176
     1
 90
        6
176
     1
 90
        2
176
     1
 62
     7
176
     1
 90
        3
176
     1
 90
        0
176
     1
 90
        0
176
     1
290
     0
176
     1
 90
        5
176
     1
 40
0.0
176
     1
 90
        0
176
     1
290
     0
176
     1
290
     1
176
     1
290
     1
176
     1
290
     0
176
     1
290
     0
176
     1
290
     0
176
     1
290
     0
176
     1
290
     0
176
     1
290
     0
176
     1
 90
       50
176
     1
 40
0.0
176
     1
 40
1.0
176
     1
 90
        0
176
     1
 62
    18
420
        0
176
     1
 90
       50
176
     1
 90
        3
176
     1
 62
     5
420
      255
176
     1
290
     0
176
     1
 90
       50
176
     1
 90
       50
176
     1
 90
       50
176
     1
290
     0
176
     1
 90
       50
176
     1
 62
   256
176
     0
 40
1.0
176
     0
 90
        2
176
     1
  1
strokes_ogs.tif
176
     1
290
     0
176
     1
 40
1.0
176
     1
 40
1.0
176
     1
  0
VISUALSTYLE
  5
1EF
102
{ACAD_REACTORS
330
EF
102
}
330
EF
100
AcDbVisualStyle
  2
Shades of Gray
 70
    23
177
     3
291
     0
 70
    58
 90
        2
176
     1
 90
        2
176
     1
 90
        3
176
     1
 90
        0
176
     1
 40
0.6
176
     1
 40
30.0
176
     1
 62
     7
420
 16777215
176
     1
 90
        2
176
     1
 90
        2
176
     1
 62
     7
176
     1
 62
     7
176
     1
 90
        1
176
     1
 90
        1
176
     1
 40
40.0
176
     1
 90
        8
176
     1
 62
     7
176
     1
 40
1.0
176
     1
 90
        1
176
     1
 90
        6
176
     1
 90
        2
176
     1
 62
     7
176
     1
 90
        3
176
     1
 90
        0
176
     1
 90
        0
176
     1
290
     0
176
     1
 90
        1
176
     1
 40
0.0
176
     1
 90
        0
176
     1
290
     0
176
     1
290
     1
176
     1
290
     1
176
     1
290
     0
176
     1
290
     0
176
     1
290
     0
176
     1
290
     0
176
     1
290
     0
176
     1
290
     0
176
     1
 90
       50
176
     1
 40
0.0
176
     1
 40
1.0
176
     1
 90
        0
176
     1
 62
    18
420
        0
176
     1
 90
       50
176
     1
 90
        3
176
     1
 62
     5
420
      255
176
     1
290
     0
176
     1
 90
       50
176
     1
 90
       50
176
     1
 90
       50
176
     1
290
     0
176
     1
 90
       50
176
     1
 62
   256
176
     0
 40
1.0
176
     0
 90
        2
176
     1
  1
strokes_ogs.tif
176
     1
290
     0
176
     1
 40
1.0
176
     1
 40
1.0
176
     1
  0
VISUALSTYLE
  5
1F0
102
{ACAD_REACTORS
330
EF
102
}
330
EF
100
AcDbVisualStyle
  2
Sketchy
 70
    24
177
     3
291
     0
 70
    58
 90
        1
176
     1
 90
        2
176
     1
 90
        2
176
     1
 90
        0
176
     1
 40
0.6
176
     1
 40
30.0
176
     1
 62
     7
420
 16777215
176
     1
 90
        2
176
     1
 90
        2
176
     1
 62
     7
176
     1
 62
     7
176
     1
 90
        1
176
     1
 90
        1
176
     1
 40
40.0
176
     1
 90
       11
176
     1
 62
     7
176
     1
 40
1.0
176
     1
 90
        1
176
     1
 90
        6
176
     1
 90
        2
176
     1
 62
     7
176
     1
 90
        6
176
     1
 90
        0
176
     1
 90
        0
176
     1
290
     0
176
     1
 90
        1
176
     1
 40
0.0
176
     1
 90
        0
176
     1
290
     0
176
     1
290
     1
176
     1
290
     1
176
     1
290
     0
176
     1
290
     0
176
     1
290
     0
176
     1
290
     0
176
     1
290
     0
176
     1
290
     0
176
     1
 90
       50
176
     1
 40
0.0
176
     1
 40
1.0
176
     1
 90
        0
176
     1
 62
    18
420
        0
176
     1
 90
       50
176
     1
 90
        3
176
     1
 62
     5
420
      255
176
     1
290
     0
176
     1
 90
       50
176
     1
 90
       50
176
     1
 90
       50
176
     1
290
     0
176
     1
 90
       50
176
     1
 62
   256
176
     0
 40
1.0
176
     0
 90
        2
176
     1
  1
strokes_ogs.tif
176
     1
290
     0
176
     1
 40
1.0
176
     1
 40
1.0
176
     1
  0
VISUALSTYLE
  5
FC
102
{ACAD_REACTORS
330
EF
102
}
330
EF
100
AcDbVisualStyle
  2
Thicken
 70
    13
177
     3
291
     1
 70
    58
 90
        2
176
     1
 90
        2
176
     1
 90
        1
176
     1
 90
        0
176
     1
 40
0.6
176
     1
 40
30.0
176
     1
 62
     7
420
 16777215
176
     1
 90
        1
176
     1
 90
        4
176
     1
 62
     7
176
     1
 62
   257
176
     1
 90
        1
176
     1
 90
        1
176
     1
 40
1.0
176
     1
 90
       12
176
     1
 62
     7
176
     1
 40
1.0
176
     1
 90
        1
176
     1
 90
        6
176
     1
 90
        2
176
     1
 62
     7
176
     1
 90
        5
176
     1
 90
        0
176
     1
 90
        0
176
     1
290
     0
176
     1
 90
        1
176
     1
 40
0.0
176
     1
 90
        0
176
     1
290
     0
176
     1
290
     1
176
     1
290
     1
176
     1
290
     0
176
     1
290
     0
176
     1
290
     0
176
     1
290
     0
176
     1
290
     0
176
     1
290
     0
176
     1
 90
       50
176
     1
 40
0.0
176
     1
 40
1.0
176
     1
 90
        0
176
     1
 62
    18
420
        0
176
     1
 90
       50
176
     1
 90
        3
176
     1
 62
     5
420
      255
176
     1
290
     0
176
     1
 90
       50
176
     1
 90
       50
176
     1
 90
       50
176
     1
290
     0
176
     1
 90
       50
176
     1
 62
   256
176
     0
 40
1.0
176
     0
 90
        2
176
     1
  1
strokes_ogs.tif
176
     1
290
     0
176
     1
 40
1.0
176
     1
 40
1.0
176
     1
  0
VISUALSTYLE
  5
F6
102
{ACAD_REACTORS
330
EF
102
}
330
EF
100
AcDbVisualStyle
  2
Wireframe
 70
     5
177
     3
291
     0
 70
    58
 90
        0
176
     1
 90
        2
176
     1
 90
        0
176
     1
 90
        0
176
     1
 40
0.6
176
     1
 40
30.0
176
     1
 62
     7
420
 16777215
176
     1
 90
        1
176
     1
 90
        4
176
     1
 62
     7
176
     1
 62
   257
176
     1
 90
        1
176
     1
 90
        1
176
     1
 40
1.0
176
     1
 90
        0
176
     1
 62
   257
176
     1
 40
1.0
176
     1
 90
        1
176
     1
 90
        6
176
     1
 90
        2
176
     1
 62
     7
176
     1
 90
        3
176
     1
 90
        0
176
     1
 90
        0
176
     1
290
     0
176
     1
 90
        1
176
     1
 40
0.0
176
     1
 90
        0
176
     1
290
     0
176
     1
290
     1
176
     1
290
     1
176
     1
290
     0
176
     1
290
     0
176
     1
290
     0
176
     1
290
     0
176
     1
290
     0
176
     1
290
     0
176
     1
 90
       50
176
     1
 40
0.0
176
     1
 40
1.0
176
     1
 90
        0
176
     1
 62
    18
420
        0
176
     1
 90
       50
176
     1
 90
        3
176
     1
 62
     5
420
      255
176
     1
290
     0
176
     1
 90
       50
176
     1
 90
       50
176
     1
 90
       50
176
     1
290
     0
176
     1
 90
       50
176
     1
 62
   256
176
     0
 40
1.0
176
     0
 90
        2
176
     1
  1
strokes_ogs.tif
176
     1
290
     0
176
     1
 40
1.0
176
     1
 40
1.0
176
     1
  0
VISUALSTYLE
  5
1F1
102
{ACAD_REACTORS
330
EF
102
}
330
EF
100
AcDbVisualStyle
  2
X-Ray
 70
    25
177
     3
291
     0
 70
    58
 90
        2
176
     1
 90
        2
176
     1
 90
        1
176
     1
 90
        1
176
     1
 40
0.5
176
     1
 40
30.0
176
     1
 62
     7
420
 16777215
176
     1
 90
        1
176
     1
 90
        0
176
     1
 62
     7
176
     1
 62
   257
176
     1
 90
        1
176
     1
 90
        1
176
     1
 40
1.0
176
     1
 90
        8
176
     1
 62
     7
176
     1
 40
1.0
176
     1
 90
        1
176
     1
 90
        6
176
     1
 90
        2
176
     1
 62
     7
176
     1
 90
        3
176
     1
 90
        0
176
     1
 90
        0
176
     1
290
     0
176
     1
 90
       13
176
     1
 40
0.0
176
     1
 90
        0
176
     1
290
     0
176
     1
290
     1
176
     1
290
     1
176
     1
290
     0
176
     1
290
     0
176
     1
290
     0
176
     1
290
     0
176
     1
290
     0
176
     1
290
     0
176
     1
 90
       50
176
     1
 40
0.0
176
     1
 40
1.0
176
     1
 90
        0
176
     1
 62
    18
420
        0
176
     1
 90
       50
176
     1
 90
        3
176
     1
 62
     5
420
      255
176
     1
290
     0
176
     1
 90
       50
176
     1
 90
       50
176
     1
 90
       50
176
     1
290
     0
176
     1
 90
       50
176
     1
 62
   256
176
     0
 40
1.0
176
     0
 90
        2
176
     1
  1
strokes_ogs.tif
176
     1
290
     0
176
     1
 40
1.0
176
     1
 40
1.0
176
     1
  0
DICTIONARYVAR
  5
146
102
{ACAD_REACTORS
330
5E
102
}
330
5E
100
DictionaryVariables
280
     0
  1
1:1
  0
DICTIONARYVAR
  5
259
102
{ACAD_REACTORS
330
5E
102
}
330
5E
100
DictionaryVariables
280
     0
  1
3.500000
  0
DICTIONARYVAR
  5
25A
102
{ACAD_REACTORS
330
5E
102
}
330
5E
100
DictionaryVariables
280
     0
  1
acadiso.lin
  0
DICTIONARYVAR
  5
145
102
{ACAD_REACTORS
330
5E
102
}
330
5E
100
DictionaryVariables
280
     0
  1
STANDARD
  0
DICTIONARYVAR
  5
84
102
{ACAD_REACTORS
330
5E
102
}
330
5E
100
DictionaryVariables
280
     0
  1
STANDARD
  0
DICTIONARYVAR
  5
227
102
{ACAD_REACTORS
330
5E
102
}
330
5E
100
DictionaryVariables
280
     0
  1
Metric50
  0
DICTIONARYVAR
  5
228
102
{ACAD_REACTORS
330
5E
102
}
330
5E
100
DictionaryVariables
280
     0
  1
Metric50
  0
DICTIONARYVAR
  5
5F
102
{ACAD_REACTORS
330
5E
102
}
330
5E
100
DictionaryVariables
280
     0
  1
2
  0
DICTIONARYVAR
  5
63
102
{ACAD_REACTORS
330
5E
102
}
330
5E
100
DictionaryVariables
280
     0
  1
1
  0
DICTIONARYVAR
  5
1AE
102
{ACAD_REACTORS
330
5E
102
}
330
5E
100
DictionaryVariables
280
     0
  1
0
  0
DICTIONARYVAR
  5
1AF
102
{ACAD_REACTORS
330
5E
102
}
330
5E
100
DictionaryVariables
280
     0
  1
0
  0
ACDBASSOCNETWORK
  5
71E
102
{ACAD_REACTORS
330
71D
102
}
330
71D
100
AcDbAssocAction
 90
        2
 90
        0
330
6AC
360
0
 90
        2
 90
        0
 90
        0
 90
        0
 90
        0
 90
        0
 90
        0
100
AcDbAssocNetwork
 90
        0
 90
        5
 90
        2
360
842
360
847
 90
        0
  0
TABLECONTENT
  5
9E5
330
9E8
100
AcDbLinkedData
  1

300

100
AcDbLinkedTableData
 90
        3
300
COLUMN
  1
LINKEDTABLEDATACOLUMN_BEGIN
300

 91
        0
301
CUSTOMDATA
  1
DATAMAP_BEGIN
 90
        0
309
DATAMAP_END
309
LINKEDTABLEDATACOLUMN_END
  1
FORMATTEDTABLEDATACOLUMN_BEGIN
300
COLUMNTABLEFORMAT
  1
TABLEFORMAT_BEGIN
 90
        3
170
     0
309
TABLEFORMAT_END
309
FORMATTEDTABLEDATACOLUMN_END
  1
TABLECOLUMN_BEGIN
 90
        0
 40
42.64999999999999
309
TABLECOLUMN_END
300
COLUMN
  1
LINKEDTABLEDATACOLUMN_BEGIN
300

 91
        0
301
CUSTOMDATA
  1
DATAMAP_BEGIN
 90
        0
309
DATAMAP_END
309
LINKEDTABLEDATACOLUMN_END
  1
FORMATTEDTABLEDATACOLUMN_BEGIN
300
COLUMNTABLEFORMAT
  1
TABLEFORMAT_BEGIN
 90
        3
170
     0
309
TABLEFORMAT_END
309
FORMATTEDTABLEDATACOLUMN_END
  1
TABLECOLUMN_BEGIN
 90
        0
 40
36.0
309
TABLECOLUMN_END
300
COLUMN
  1
LINKEDTABLEDATACOLUMN_BEGIN
300

 91
        0
301
CUSTOMDATA
  1
DATAMAP_BEGIN
 90
        0
309
DATAMAP_END
309
LINKEDTABLEDATACOLUMN_END
  1
FORMATTEDTABLEDATACOLUMN_BEGIN
300
COLUMNTABLEFORMAT
  1
TABLEFORMAT_BEGIN
 90
        3
170
     0
309
TABLEFORMAT_END
309
FORMATTEDTABLEDATACOLUMN_END
  1
TABLECOLUMN_BEGIN
 90
        0
 40
36.0
309
TABLECOLUMN_END
 91
        4
301
ROW
  1
LINKEDTABLEDATAROW_BEGIN
 90
        3
300
CELL
  1
LINKEDTABLEDATACELL_BEGIN
 90
        0
300

 91
        0
301
CUSTOMDATA
  1
DATAMAP_BEGIN
 90
        1
300
ACAD_ROUNDTRIP_2008_CELL_CHECKSUM
301
DATAMAP_VALUE
 93
        2
 90
        2
140
0.0
 94
        0
300

302

304
ACVALUE_END
309
DATAMAP_END
 92
        0
 95
        1
302
CONTENT
  1
CELLCONTENT_BEGIN
 90
        1
300
VALUE
 93
        7
 90
        0
 94
        0
300

302

304
ACVALUE_END
 91
        0
309
CELLCONTENT_END
  1
FORMATTEDCELLCONTENT_BEGIN
170
     1
300
CONTENTFORMAT
  1
CONTENTFORMAT_BEGIN
 90
      192
 91
        0
 92
      512
 93
        0
300

 40
0.0
140
1.0
 94
        1
 62
     0
340
7A5
144
2.5
309
CONTENTFORMAT_END
309
FORMATTEDCELLCONTENT_END
309
LINKEDTABLEDATACELL_END
  1
FORMATTEDTABLEDATACELL_BEGIN
300
CELLTABLEFORMAT
  1
TABLEFORMAT_BEGIN
 90
        1
170
     1
 91
        0
 92
        0
 62
   257
 93
        1
300
CONTENTFORMAT
  1
CONTENTFORMAT_BEGIN
 90
        0
 91
        0
 92
      512
 93
        0
300

 40
0.0
140
1.0
 94
        1
 62
     0
340
0
144
0.18
309
CONTENTFORMAT_END
171
     1
301
MARGIN
  1
CELLMARGIN_BEGIN
 40
1.5
 40
1.5
 40
1.5
 40
1.5
 40
0.18
 40
0.18
309
CELLMARGIN_END
 94
        6
 95
        1
302
GRIDFORMAT
  1
GRIDFORMAT_BEGIN
 90
       37
 91
        1
 62
     0
 92
       -2
340
14
 93
        0
 40
1.125
309
GRIDFORMAT_END
 95
        2
302
GRIDFORMAT
  1
GRIDFORMAT_BEGIN
 90
       37
 91
        1
 62
     0
 92
       -2
340
14
 93
        0
 40
1.125
309
GRIDFORMAT_END
 95
        4
302
GRIDFORMAT
  1
GRIDFORMAT_BEGIN
 90
       37
 91
        1
 62
     0
 92
       -2
340
14
 93
        0
 40
1.125
309
GRIDFORMAT_END
 95
        8
302
GRIDFORMAT
  1
GRIDFORMAT_BEGIN
 90
       37
 91
        1
 62
     0
 92
       -2
340
14
 93
        0
 40
1.125
309
GRIDFORMAT_END
 95
       16
302
GRIDFORMAT
  1
GRIDFORMAT_BEGIN
 90
       37
 91
        1
 62
     0
 92
       -2
340
14
 93
        0
 40
1.125
309
GRIDFORMAT_END
 95
       32
302
GRIDFORMAT
  1
GRIDFORMAT_BEGIN
 90
       37
 91
        1
 62
     0
 92
       -2
340
14
 93
        0
 40
1.125
309
GRIDFORMAT_END
309
TABLEFORMAT_END
309
FORMATTEDTABLEDATACELL_END
  1
TABLECELL_BEGIN
 90
        0
 91
        0
309
TABLECELL_END
300
CELL
  1
LINKEDTABLEDATACELL_BEGIN
 90
        0
300

 91
        0
301
CUSTOMDATA
  1
DATAMAP_BEGIN
 90
        1
300
ACAD_ROUNDTRIP_2008_CELL_CHECKSUM
301
DATAMAP_VALUE
 93
        2
 90
        2
140
33842.0
 94
        0
300

302

304
ACVALUE_END
309
DATAMAP_END
 92
        0
 95
        1
302
CONTENT
  1
CELLCONTENT_BEGIN
 90
        1
300
VALUE
 93
        6
 90
        4
  1
{\fSimSun|b1|i0|c134|p34;S1}
 94
        0
300

302
{\fSimSun|b1|i0|c134|p34;S1}
304
ACVALUE_END
 91
        0
309
CELLCONTENT_END
  1
FORMATTEDCELLCONTENT_BEGIN
170
     1
300
CONTENTFORMAT
  1
CONTENTFORMAT_BEGIN
 90
      227
 91
        0
 92
        4
 93
        0
300

 40
0.0
140
1.0
 94
        1
 62
     3
340
7A5
144
2.5
309
CONTENTFORMAT_END
309
FORMATTEDCELLCONTENT_END
309
LINKEDTABLEDATACELL_END
  1
FORMATTEDTABLEDATACELL_BEGIN
300
CELLTABLEFORMAT
  1
TABLEFORMAT_BEGIN
 90
        1
170
     1
 91
       16
 92
        0
 62
   257
 93
        1
300
CONTENTFORMAT
  1
CONTENTFORMAT_BEGIN
 90
        0
 91
        0
 92
      512
 93
        0
300

 40
0.0
140
1.0
 94
        5
 62
     0
340
0
144
0.18
309
CONTENTFORMAT_END
171
     1
301
MARGIN
  1
CELLMARGIN_BEGIN
 40
1.5
 40
1.5
 40
1.5
 40
1.5
 40
0.18
 40
0.18
309
CELLMARGIN_END
 94
        5
 95
        1
302
GRIDFORMAT
  1
GRIDFORMAT_BEGIN
 90
       37
 91
        1
 62
     0
 92
       -2
340
14
 93
        0
 40
1.125
309
GRIDFORMAT_END
 95
        2
302
GRIDFORMAT
  1
GRIDFORMAT_BEGIN
 90
       37
 91
        1
 62
     0
 92
       -2
340
14
 93
        0
 40
1.125
309
GRIDFORMAT_END
 95
        4
302
GRIDFORMAT
  1
GRIDFORMAT_BEGIN
 90
       37
 91
        1
 62
     0
 92
       -2
340
14
 93
        0
 40
1.125
309
GRIDFORMAT_END
 95
       16
302
GRIDFORMAT
  1
GRIDFORMAT_BEGIN
 90
       37
 91
        1
 62
     0
 92
       -2
340
14
 93
        0
 40
1.125
309
GRIDFORMAT_END
 95
       32
302
GRIDFORMAT
  1
GRIDFORMAT_BEGIN
 90
       37
 91
        1
 62
     0
 92
       -2
340
14
 93
        0
 40
1.125
309
GRIDFORMAT_END
309
TABLEFORMAT_END
309
FORMATTEDTABLEDATACELL_END
  1
TABLECELL_BEGIN
 90
        0
 91
        0
309
TABLECELL_END
300
CELL
  1
LINKEDTABLEDATACELL_BEGIN
 90
        0
300

 91
        0
301
CUSTOMDATA
  1
DATAMAP_BEGIN
 90
        1
300
ACAD_ROUNDTRIP_2008_CELL_CHECKSUM
301
DATAMAP_VALUE
 93
        2
 90
        2
140
33869.0
 94
        0
300

302

304
ACVALUE_END
309
DATAMAP_END
 92
        0
 95
        1
302
CONTENT
  1
CELLCONTENT_BEGIN
 90
        1
300
VALUE
 93
        6
 90
        4
  1
{\fSimSun|b1|i0|c134|p34;S2}
 94
        0
300

302
{\fSimSun|b1|i0|c134|p34;S2}
304
ACVALUE_END
 91
        0
309
CELLCONTENT_END
  1
FORMATTEDCELLCONTENT_BEGIN
170
     1
300
CONTENTFORMAT
  1
CONTENTFORMAT_BEGIN
 90
      227
 91
        0
 92
        4
 93
        0
300

 40
0.0
140
1.0
 94
        1
 62
     3
340
7A5
144
2.5
309
CONTENTFORMAT_END
309
FORMATTEDCELLCONTENT_END
309
LINKEDTABLEDATACELL_END
  1
FORMATTEDTABLEDATACELL_BEGIN
300
CELLTABLEFORMAT
  1
TABLEFORMAT_BEGIN
 90
        1
170
     1
 91
       16
 92
        0
 62
   257
 93
        1
300
CONTENTFORMAT
  1
CONTENTFORMAT_BEGIN
 90
        0
 91
        0
 92
      512
 93
        0
300

 40
0.0
140
1.0
 94
        5
 62
     0
340
0
144
0.18
309
CONTENTFORMAT_END
171
     1
301
MARGIN
  1
CELLMARGIN_BEGIN
 40
1.5
 40
1.5
 40
1.5
 40
1.5
 40
0.18
 40
0.18
309
CELLMARGIN_END
 94
        5
 95
        1
302
GRIDFORMAT
  1
GRIDFORMAT_BEGIN
 90
       37
 91
        1
 62
     0
 92
       -2
340
14
 93
        0
 40
1.125
309
GRIDFORMAT_END
 95
        2
302
GRIDFORMAT
  1
GRIDFORMAT_BEGIN
 90
       37
 91
        1
 62
     0
 92
       -2
340
14
 93
        0
 40
1.125
309
GRIDFORMAT_END
 95
        4
302
GRIDFORMAT
  1
GRIDFORMAT_BEGIN
 90
       37
 91
        1
 62
     0
 92
       -2
340
14
 93
        0
 40
1.125
309
GRIDFORMAT_END
 95
       16
302
GRIDFORMAT
  1
GRIDFORMAT_BEGIN
 90
       37
 91
        1
 62
     0
 92
       -2
340
14
 93
        0
 40
1.125
309
GRIDFORMAT_END
 95
       32
302
GRIDFORMAT
  1
GRIDFORMAT_BEGIN
 90
       37
 91
        1
 62
     0
 92
       -2
340
14
 93
        0
 40
1.125
309
GRIDFORMAT_END
309
TABLEFORMAT_END
309
FORMATTEDTABLEDATACELL_END
  1
TABLECELL_BEGIN
 90
        0
 91
        0
309
TABLECELL_END
 91
        0
301
CUSTOMDATA
  1
DATAMAP_BEGIN
 90
        0
309
DATAMAP_END
309
LINKEDTABLEDATAROW_END
  1
FORMATTEDTABLEDATAROW_BEGIN
300
ROWTABLEFORMAT
  1
TABLEFORMAT_BEGIN
 90
        2
170
     0
309
TABLEFORMAT_END
309
FORMATTEDTABLEDATAROW_END
  1
TABLEROW_BEGIN
 90
        3
 40
6.333333333333332
309
TABLEROW_END
301
ROW
  1
LINKEDTABLEDATAROW_BEGIN
 90
        3
300
CELL
  1
LINKEDTABLEDATACELL_BEGIN
 90
        0
300

 91
        0
301
CUSTOMDATA
  1
DATAMAP_BEGIN
 90
        1
300
ACAD_ROUNDTRIP_2008_CELL_CHECKSUM
301
DATAMAP_VALUE
 93
        2
 90
        2
140
1458111.0
 94
        0
300

302

304
ACVALUE_END
309
DATAMAP_END
 92
        0
 95
        1
302
CONTENT
  1
CELLCONTENT_BEGIN
 90
        1
300
VALUE
 93
        6
 90
        4
  1
{\fSimSun|b1|i0|c134|p34;形状}
 94
        0
300

302
{\fSimSun|b1|i0|c134|p34;形状}
304
ACVALUE_END
 91
        0
309
CELLCONTENT_END
  1
FORMATTEDCELLCONTENT_BEGIN
170
     1
300
CONTENTFORMAT
  1
CONTENTFORMAT_BEGIN
 90
      227
 91
        0
 92
        4
 93
        0
300

 40
0.0
140
1.0
 94
        1
 62
     3
340
7A5
144
2.5
309
CONTENTFORMAT_END
309
FORMATTEDCELLCONTENT_END
309
LINKEDTABLEDATACELL_END
  1
FORMATTEDTABLEDATACELL_BEGIN
300
CELLTABLEFORMAT
  1
TABLEFORMAT_BEGIN
 90
        1
170
     1
 91
       16
 92
        0
 62
   257
 93
        1
300
CONTENTFORMAT
  1
CONTENTFORMAT_BEGIN
 90
        0
 91
        0
 92
      512
 93
        0
300

 40
0.0
140
1.0
 94
        5
 62
     0
340
0
144
0.18
309
CONTENTFORMAT_END
171
     1
301
MARGIN
  1
CELLMARGIN_BEGIN
 40
1.5
 40
1.5
 40
1.5
 40
1.5
 40
0.18
 40
0.18
309
CELLMARGIN_END
 94
        5
 95
        2
302
GRIDFORMAT
  1
GRIDFORMAT_BEGIN
 90
       37
 91
        1
 62
     0
 92
       -2
340
14
 93
        0
 40
1.125
309
GRIDFORMAT_END
 95
        4
302
GRIDFORMAT
  1
GRIDFORMAT_BEGIN
 90
       37
 91
        1
 62
     0
 92
       -2
340
14
 93
        0
 40
1.125
309
GRIDFORMAT_END
 95
        8
302
GRIDFORMAT
  1
GRIDFORMAT_BEGIN
 90
       37
 91
        1
 62
     0
 92
       -2
340
14
 93
        0
 40
1.125
309
GRIDFORMAT_END
 95
       16
302
GRIDFORMAT
  1
GRIDFORMAT_BEGIN
 90
       37
 91
        1
 62
     0
 92
       -2
340
14
 93
        0
 40
1.125
309
GRIDFORMAT_END
 95
       32
302
GRIDFORMAT
  1
GRIDFORMAT_BEGIN
 90
       37
 91
        1
 62
     0
 92
       -2
340
14
 93
        0
 40
1.125
309
GRIDFORMAT_END
309
TABLEFORMAT_END
309
FORMATTEDTABLEDATACELL_END
  1
TABLECELL_BEGIN
 90
        0
 91
        0
309
TABLECELL_END
300
CELL
  1
LINKEDTABLEDATACELL_BEGIN
 90
        0
300

 91
        0
301
CUSTOMDATA
  1
DATAMAP_BEGIN
 90
        1
300
ACAD_ROUNDTRIP_2008_CELL_CHECKSUM
301
DATAMAP_VALUE
 93
        2
 90
        2
140
1705373.0
 94
        0
300

302

304
ACVALUE_END
309
DATAMAP_END
 92
        0
 95
        1
302
CONTENT
  1
CELLCONTENT_BEGIN
 90
        1
300
VALUE
 93
        6
 90
        4
  1
{\fSimSun|b1|i0|c134|p34;平面}
 94
        0
300

302
{\fSimSun|b1|i0|c134|p34;平面}
304
ACVALUE_END
 91
        0
309
CELLCONTENT_END
  1
FORMATTEDCELLCONTENT_BEGIN
170
     1
300
CONTENTFORMAT
  1
CONTENTFORMAT_BEGIN
 90
      227
 91
        0
 92
        4
 93
        0
300

 40
0.0
140
1.0
 94
        1
 62
     3
340
7A5
144
2.5
309
CONTENTFORMAT_END
309
FORMATTEDCELLCONTENT_END
309
LINKEDTABLEDATACELL_END
  1
FORMATTEDTABLEDATACELL_BEGIN
300
CELLTABLEFORMAT
  1
TABLEFORMAT_BEGIN
 90
        1
170
     1
 91
       16
 92
        0
 62
   257
 93
        1
300
CONTENTFORMAT
  1
CONTENTFORMAT_BEGIN
 90
        0
 91
        0
 92
      512
 93
        0
300

 40
0.0
140
1.0
 94
        5
 62
     0
340
0
144
0.18
309
CONTENTFORMAT_END
171
     1
301
MARGIN
  1
CELLMARGIN_BEGIN
 40
1.5
 40
1.5
 40
1.5
 40
1.5
 40
0.18
 40
0.18
309
CELLMARGIN_END
 94
        4
 95
        2
302
GRIDFORMAT
  1
GRIDFORMAT_BEGIN
 90
       37
 91
        1
 62
     0
 92
       -2
340
14
 93
        0
 40
1.125
309
GRIDFORMAT_END
 95
        4
302
GRIDFORMAT
  1
GRIDFORMAT_BEGIN
 90
       37
 91
        1
 62
     0
 92
       -2
340
14
 93
        0
 40
1.125
309
GRIDFORMAT_END
 95
       16
302
GRIDFORMAT
  1
GRIDFORMAT_BEGIN
 90
       37
 91
        1
 62
     0
 92
       -2
340
14
 93
        0
 40
1.125
309
GRIDFORMAT_END
 95
       32
302
GRIDFORMAT
  1
GRIDFORMAT_BEGIN
 90
       37
 91
        1
 62
     0
 92
       -2
340
14
 93
        0
 40
1.125
309
GRIDFORMAT_END
309
TABLEFORMAT_END
309
FORMATTEDTABLEDATACELL_END
  1
TABLECELL_BEGIN
 90
        0
 91
        0
309
TABLECELL_END
300
CELL
  1
LINKEDTABLEDATACELL_BEGIN
 90
        0
300

 91
        0
301
CUSTOMDATA
  1
DATAMAP_BEGIN
 90
        1
300
ACAD_ROUNDTRIP_2008_CELL_CHECKSUM
301
DATAMAP_VALUE
 93
        2
 90
        2
140
1705373.0
 94
        0
300

302

304
ACVALUE_END
309
DATAMAP_END
 92
        0
 95
        1
302
CONTENT
  1
CELLCONTENT_BEGIN
 90
        1
300
VALUE
 93
        6
 90
        4
  1
{\fSimSun|b1|i0|c134|p34;平面}
 94
        0
300

302
{\fSimSun|b1|i0|c134|p34;平面}
304
ACVALUE_END
 91
        0
309
CELLCONTENT_END
  1
FORMATTEDCELLCONTENT_BEGIN
170
     1
300
CONTENTFORMAT
  1
CONTENTFORMAT_BEGIN
 90
      227
 91
        0
 92
        4
 93
        0
300

 40
0.0
140
1.0
 94
        1
 62
     3
340
7A5
144
2.5
309
CONTENTFORMAT_END
309
FORMATTEDCELLCONTENT_END
309
LINKEDTABLEDATACELL_END
  1
FORMATTEDTABLEDATACELL_BEGIN
300
CELLTABLEFORMAT
  1
TABLEFORMAT_BEGIN
 90
        1
170
     1
 91
       16
 92
        0
 62
   257
 93
        1
300
CONTENTFORMAT
  1
CONTENTFORMAT_BEGIN
 90
        0
 91
        0
 92
      512
 93
        0
300

 40
0.0
140
1.0
 94
        5
 62
     0
340
0
144
0.18
309
CONTENTFORMAT_END
171
     1
301
MARGIN
  1
CELLMARGIN_BEGIN
 40
1.5
 40
1.5
 40
1.5
 40
1.5
 40
0.18
 40
0.18
309
CELLMARGIN_END
 94
        4
 95
        2
302
GRIDFORMAT
  1
GRIDFORMAT_BEGIN
 90
       37
 91
        1
 62
     0
 92
       -2
340
14
 93
        0
 40
1.125
309
GRIDFORMAT_END
 95
        4
302
GRIDFORMAT
  1
GRIDFORMAT_BEGIN
 90
       37
 91
        1
 62
     0
 92
       -2
340
14
 93
        0
 40
1.125
309
GRIDFORMAT_END
 95
       16
302
GRIDFORMAT
  1
GRIDFORMAT_BEGIN
 90
       37
 91
        1
 62
     0
 92
       -2
340
14
 93
        0
 40
1.125
309
GRIDFORMAT_END
 95
       32
302
GRIDFORMAT
  1
GRIDFORMAT_BEGIN
 90
       37
 91
        1
 62
     0
 92
       -2
340
14
 93
        0
 40
1.125
309
GRIDFORMAT_END
309
TABLEFORMAT_END
309
FORMATTEDTABLEDATACELL_END
  1
TABLECELL_BEGIN
 90
        0
 91
        0
309
TABLECELL_END
 91
        0
301
CUSTOMDATA
  1
DATAMAP_BEGIN
 90
        0
309
DATAMAP_END
309
LINKEDTABLEDATAROW_END
  1
FORMATTEDTABLEDATAROW_BEGIN
300
ROWTABLEFORMAT
  1
TABLEFORMAT_BEGIN
 90
        2
170
     0
309
TABLEFORMAT_END
309
FORMATTEDTABLEDATAROW_END
  1
TABLEROW_BEGIN
 90
        3
 40
6.333333333333332
309
TABLEROW_END
301
ROW
  1
LINKEDTABLEDATAROW_BEGIN
 90
        3
300
CELL
  1
LINKEDTABLEDATACELL_BEGIN
 90
        0
300

 91
        0
301
CUSTOMDATA
  1
DATAMAP_BEGIN
 90
        1
300
ACAD_ROUNDTRIP_2008_CELL_CHECKSUM
301
DATAMAP_VALUE
 93
        2
 90
        2
140
2003395.0
 94
        0
300

302

304
ACVALUE_END
309
DATAMAP_END
 92
        0
 95
        1
302
CONTENT
  1
CELLCONTENT_BEGIN
 90
        1
300
VALUE
 93
        6
 90
        4
  1
{\fSimSun|b1|i0|c134|p34;光洁度}
 94
        0
300

302
{\fSimSun|b1|i0|c134|p34;光洁度}
304
ACVALUE_END
 91
        0
309
CELLCONTENT_END
  1
FORMATTEDCELLCONTENT_BEGIN
170
     1
300
CONTENTFORMAT
  1
CONTENTFORMAT_BEGIN
 90
      227
 91
        0
 92
        4
 93
        0
300

 40
0.0
140
1.0
 94
        1
 62
     3
340
7A5
144
2.5
309
CONTENTFORMAT_END
309
FORMATTEDCELLCONTENT_END
309
LINKEDTABLEDATACELL_END
  1
FORMATTEDTABLEDATACELL_BEGIN
300
CELLTABLEFORMAT
  1
TABLEFORMAT_BEGIN
 90
        1
170
     1
 91
       16
 92
        0
 62
   257
 93
        1
300
CONTENTFORMAT
  1
CONTENTFORMAT_BEGIN
 90
        0
 91
        0
 92
      512
 93
        0
300

 40
0.0
140
1.0
 94
        5
 62
     0
340
0
144
0.18
309
CONTENTFORMAT_END
171
     1
301
MARGIN
  1
CELLMARGIN_BEGIN
 40
1.5
 40
1.5
 40
1.5
 40
1.5
 40
0.18
 40
0.18
309
CELLMARGIN_END
 94
        5
 95
        2
302
GRIDFORMAT
  1
GRIDFORMAT_BEGIN
 90
       37
 91
        1
 62
     0
 92
       -2
340
14
 93
        0
 40
1.125
309
GRIDFORMAT_END
 95
        4
302
GRIDFORMAT
  1
GRIDFORMAT_BEGIN
 90
       37
 91
        1
 62
     0
 92
       -2
340
14
 93
        0
 40
1.125
309
GRIDFORMAT_END
 95
        8
302
GRIDFORMAT
  1
GRIDFORMAT_BEGIN
 90
       37
 91
        1
 62
     0
 92
       -2
340
14
 93
        0
 40
1.125
309
GRIDFORMAT_END
 95
       16
302
GRIDFORMAT
  1
GRIDFORMAT_BEGIN
 90
       37
 91
        1
 62
     0
 92
       -2
340
14
 93
        0
 40
1.125
309
GRIDFORMAT_END
 95
       32
302
GRIDFORMAT
  1
GRIDFORMAT_BEGIN
 90
       37
 91
        1
 62
     0
 92
       -2
340
14
 93
        0
 40
1.125
309
GRIDFORMAT_END
309
TABLEFORMAT_END
309
FORMATTEDTABLEDATACELL_END
  1
TABLECELL_BEGIN
 90
        0
 91
        0
309
TABLECELL_END
300
CELL
  1
LINKEDTABLEDATACELL_BEGIN
 90
        0
300

 91
        0
301
CUSTOMDATA
  1
DATAMAP_BEGIN
 90
        1
300
ACAD_ROUNDTRIP_2008_CELL_CHECKSUM
301
DATAMAP_VALUE
 93
        2
 90
        2
140
37725.0
 94
        0
300

302

304
ACVALUE_END
309
DATAMAP_END
 92
        0
 95
        1
302
CONTENT
  1
CELLCONTENT_BEGIN
 90
        1
300
VALUE
 93
        6
 90
        4
  1
{\fSimSun|b1|i0|c134|p34;80-50}
 94
        0
300

302
{\fSimSun|b1|i0|c134|p34;80-50}
304
ACVALUE_END
 91
        0
309
CELLCONTENT_END
  1
FORMATTEDCELLCONTENT_BEGIN
170
     1
300
CONTENTFORMAT
  1
CONTENTFORMAT_BEGIN
 90
      227
 91
        0
 92
        4
 93
        0
300

 40
0.0
140
1.0
 94
        1
 62
     3
340
7A5
144
2.5
309
CONTENTFORMAT_END
309
FORMATTEDCELLCONTENT_END
309
LINKEDTABLEDATACELL_END
  1
FORMATTEDTABLEDATACELL_BEGIN
300
CELLTABLEFORMAT
  1
TABLEFORMAT_BEGIN
 90
        1
170
     1
 91
       16
 92
        0
 62
   257
 93
        1
300
CONTENTFORMAT
  1
CONTENTFORMAT_BEGIN
 90
        0
 91
        0
 92
      512
 93
        0
300

 40
0.0
140
1.0
 94
        5
 62
     0
340
0
144
0.18
309
CONTENTFORMAT_END
171
     1
301
MARGIN
  1
CELLMARGIN_BEGIN
 40
1.5
 40
1.5
 40
1.5
 40
1.5
 40
0.18
 40
0.18
309
CELLMARGIN_END
 94
        4
 95
        2
302
GRIDFORMAT
  1
GRIDFORMAT_BEGIN
 90
       37
 91
        1
 62
     0
 92
       -2
340
14
 93
        0
 40
1.125
309
GRIDFORMAT_END
 95
        4
302
GRIDFORMAT
  1
GRIDFORMAT_BEGIN
 90
       37
 91
        1
 62
     0
 92
       -2
340
14
 93
        0
 40
1.125
309
GRIDFORMAT_END
 95
       16
302
GRIDFORMAT
  1
GRIDFORMAT_BEGIN
 90
       37
 91
        1
 62
     0
 92
       -2
340
14
 93
        0
 40
1.125
309
GRIDFORMAT_END
 95
       32
302
GRIDFORMAT
  1
GRIDFORMAT_BEGIN
 90
       37
 91
        1
 62
     0
 92
       -2
340
14
 93
        0
 40
1.125
309
GRIDFORMAT_END
309
TABLEFORMAT_END
309
FORMATTEDTABLEDATACELL_END
  1
TABLECELL_BEGIN
 90
        0
 91
        0
309
TABLECELL_END
300
CELL
  1
LINKEDTABLEDATACELL_BEGIN
 90
        0
300

 91
        0
301
CUSTOMDATA
  1
DATAMAP_BEGIN
 90
        1
300
ACAD_ROUNDTRIP_2008_CELL_CHECKSUM
301
DATAMAP_VALUE
 93
        2
 90
        2
140
37725.0
 94
        0
300

302

304
ACVALUE_END
309
DATAMAP_END
 92
        0
 95
        1
302
CONTENT
  1
CELLCONTENT_BEGIN
 90
        1
300
VALUE
 93
        6
 90
        4
  1
{\fSimSun|b1|i0|c134|p34;80-50}
 94
        0
300

302
{\fSimSun|b1|i0|c134|p34;80-50}
304
ACVALUE_END
 91
        0
309
CELLCONTENT_END
  1
FORMATTEDCELLCONTENT_BEGIN
170
     1
300
CONTENTFORMAT
  1
CONTENTFORMAT_BEGIN
 90
      227
 91
        0
 92
        4
 93
        0
300

 40
0.0
140
1.0
 94
        1
 62
     3
340
7A5
144
2.5
309
CONTENTFORMAT_END
309
FORMATTEDCELLCONTENT_END
309
LINKEDTABLEDATACELL_END
  1
FORMATTEDTABLEDATACELL_BEGIN
300
CELLTABLEFORMAT
  1
TABLEFORMAT_BEGIN
 90
        1
170
     1
 91
       16
 92
        0
 62
   257
 93
        1
300
CONTENTFORMAT
  1
CONTENTFORMAT_BEGIN
 90
        0
 91
        0
 92
      512
 93
        0
300

 40
0.0
140
1.0
 94
        5
 62
     0
340
0
144
0.18
309
CONTENTFORMAT_END
171
     1
301
MARGIN
  1
CELLMARGIN_BEGIN
 40
1.5
 40
1.5
 40
1.5
 40
1.5
 40
0.18
 40
0.18
309
CELLMARGIN_END
 94
        4
 95
        2
302
GRIDFORMAT
  1
GRIDFORMAT_BEGIN
 90
       37
 91
        1
 62
     0
 92
       -2
340
14
 93
        0
 40
1.125
309
GRIDFORMAT_END
 95
        4
302
GRIDFORMAT
  1
GRIDFORMAT_BEGIN
 90
       37
 91
        1
 62
     0
 92
       -2
340
14
 93
        0
 40
1.125
309
GRIDFORMAT_END
 95
       16
302
GRIDFORMAT
  1
GRIDFORMAT_BEGIN
 90
       37
 91
        1
 62
     0
 92
       -2
340
14
 93
        0
 40
1.125
309
GRIDFORMAT_END
 95
       32
302
GRIDFORMAT
  1
GRIDFORMAT_BEGIN
 90
       37
 91
        1
 62
     0
 92
       -2
340
14
 93
        0
 40
1.125
309
GRIDFORMAT_END
309
TABLEFORMAT_END
309
FORMATTEDTABLEDATACELL_END
  1
TABLECELL_BEGIN
 90
        0
 91
        0
309
TABLECELL_END
 91
        0
301
CUSTOMDATA
  1
DATAMAP_BEGIN
 90
        0
309
DATAMAP_END
309
LINKEDTABLEDATAROW_END
  1
FORMATTEDTABLEDATAROW_BEGIN
300
ROWTABLEFORMAT
  1
TABLEFORMAT_BEGIN
 90
        2
170
     0
309
TABLEFORMAT_END
309
FORMATTEDTABLEDATAROW_END
  1
TABLEROW_BEGIN
 90
        3
 40
6.333333333333332
309
TABLEROW_END
301
ROW
  1
LINKEDTABLEDATAROW_BEGIN
 90
        3
300
CELL
  1
LINKEDTABLEDATACELL_BEGIN
 90
        0
300

 91
        0
301
CUSTOMDATA
  1
DATAMAP_BEGIN
 90
        1
300
ACAD_ROUNDTRIP_2008_CELL_CHECKSUM
301
DATAMAP_VALUE
 93
        2
 90
        2
140
2862002.0
 94
        0
300

302

304
ACVALUE_END
309
DATAMAP_END
 92
        0
 95
        1
302
CONTENT
  1
CELLCONTENT_BEGIN
 90
        1
300
VALUE
 93
        6
 90
        4
  1
{\fSimSun|b1|i0|c134|p34;通光口径}
 94
        0
300

302
{\fSimSun|b1|i0|c134|p34;通光口径}
304
ACVALUE_END
 91
        0
309
CELLCONTENT_END
  1
FORMATTEDCELLCONTENT_BEGIN
170
     1
300
CONTENTFORMAT
  1
CONTENTFORMAT_BEGIN
 90
      227
 91
        0
 92
        4
 93
        0
300

 40
0.0
140
1.0
 94
        1
 62
     3
340
7A5
144
2.5
309
CONTENTFORMAT_END
309
FORMATTEDCELLCONTENT_END
309
LINKEDTABLEDATACELL_END
  1
FORMATTEDTABLEDATACELL_BEGIN
300
CELLTABLEFORMAT
  1
TABLEFORMAT_BEGIN
 90
        1
170
     1
 91
       16
 92
        0
 62
   257
 93
        1
300
CONTENTFORMAT
  1
CONTENTFORMAT_BEGIN
 90
        0
 91
        0
 92
      512
 93
        0
300

 40
0.0
140
1.0
 94
        5
 62
     0
340
0
144
0.18
309
CONTENTFORMAT_END
171
     1
301
MARGIN
  1
CELLMARGIN_BEGIN
 40
1.5
 40
1.5
 40
1.5
 40
1.5
 40
0.18
 40
0.18
309
CELLMARGIN_END
 94
        5
 95
        2
302
GRIDFORMAT
  1
GRIDFORMAT_BEGIN
 90
       37
 91
        1
 62
     0
 92
       -2
340
14
 93
        0
 40
1.125
309
GRIDFORMAT_END
 95
        4
302
GRIDFORMAT
  1
GRIDFORMAT_BEGIN
 90
       37
 91
        1
 62
     0
 92
       -2
340
14
 93
        0
 40
1.125
309
GRIDFORMAT_END
 95
        8
302
GRIDFORMAT
  1
GRIDFORMAT_BEGIN
 90
       37
 91
        1
 62
     0
 92
       -2
340
14
 93
        0
 40
1.125
309
GRIDFORMAT_END
 95
       16
302
GRIDFORMAT
  1
GRIDFORMAT_BEGIN
 90
       37
 91
        1
 62
     0
 92
       -2
340
14
 93
        0
 40
1.125
309
GRIDFORMAT_END
 95
       32
302
GRIDFORMAT
  1
GRIDFORMAT_BEGIN
 90
       37
 91
        1
 62
     0
 92
       -2
340
14
 93
        0
 40
1.125
309
GRIDFORMAT_END
309
TABLEFORMAT_END
309
FORMATTEDTABLEDATACELL_END
  1
TABLECELL_BEGIN
 90
        0
 91
        0
309
TABLECELL_END
300
CELL
  1
LINKEDTABLEDATACELL_BEGIN
 90
        0
300

 91
        0
301
CUSTOMDATA
  1
DATAMAP_BEGIN
 90
        1
300
ACAD_ROUNDTRIP_2008_CELL_CHECKSUM
301
DATAMAP_VALUE
 93
        2
 90
        2
140
34300.0
 94
        0
300

302

304
ACVALUE_END
309
DATAMAP_END
 92
        0
 95
        1
302
CONTENT
  1
CELLCONTENT_BEGIN
 90
        1
300
VALUE
 93
        6
 90
        4
  1
{\fSimSun|b1|i0|c134|p34;90%}
 94
        0
300

302
{\fSimSun|b1|i0|c134|p34;90%}
304
ACVALUE_END
 91
        0
309
CELLCONTENT_END
  1
FORMATTEDCELLCONTENT_BEGIN
170
     1
300
CONTENTFORMAT
  1
CONTENTFORMAT_BEGIN
 90
      227
 91
        0
 92
        4
 93
        0
300

 40
0.0
140
1.0
 94
        1
 62
     3
340
7A5
144
2.5
309
CONTENTFORMAT_END
309
FORMATTEDCELLCONTENT_END
309
LINKEDTABLEDATACELL_END
  1
FORMATTEDTABLEDATACELL_BEGIN
300
CELLTABLEFORMAT
  1
TABLEFORMAT_BEGIN
 90
        1
170
     1
 91
       16
 92
        0
 62
   257
 93
        1
300
CONTENTFORMAT
  1
CONTENTFORMAT_BEGIN
 90
        0
 91
        0
 92
      512
 93
        0
300

 40
0.0
140
1.0
 94
        5
 62
     0
340
0
144
0.18
309
CONTENTFORMAT_END
171
     1
301
MARGIN
  1
CELLMARGIN_BEGIN
 40
1.5
 40
1.5
 40
1.5
 40
1.5
 40
0.18
 40
0.18
309
CELLMARGIN_END
 94
        4
 95
        2
302
GRIDFORMAT
  1
GRIDFORMAT_BEGIN
 90
       37
 91
        1
 62
     0
 92
       -2
340
14
 93
        0
 40
1.125
309
GRIDFORMAT_END
 95
        4
302
GRIDFORMAT
  1
GRIDFORMAT_BEGIN
 90
       37
 91
        1
 62
     0
 92
       -2
340
14
 93
        0
 40
1.125
309
GRIDFORMAT_END
 95
       16
302
GRIDFORMAT
  1
GRIDFORMAT_BEGIN
 90
       37
 91
        1
 62
     0
 92
       -2
340
14
 93
        0
 40
1.125
309
GRIDFORMAT_END
 95
       32
302
GRIDFORMAT
  1
GRIDFORMAT_BEGIN
 90
       37
 91
        1
 62
     0
 92
       -2
340
14
 93
        0
 40
1.125
309
GRIDFORMAT_END
309
TABLEFORMAT_END
309
FORMATTEDTABLEDATACELL_END
  1
TABLECELL_BEGIN
 90
        0
 91
        0
309
TABLECELL_END
300
CELL
  1
LINKEDTABLEDATACELL_BEGIN
 90
        0
300

 91
        0
301
CUSTOMDATA
  1
DATAMAP_BEGIN
 90
        1
300
ACAD_ROUNDTRIP_2008_CELL_CHECKSUM
301
DATAMAP_VALUE
 93
        2
 90
        2
140
34300.0
 94
        0
300

302

304
ACVALUE_END
309
DATAMAP_END
 92
        0
 95
        1
302
CONTENT
  1
CELLCONTENT_BEGIN
 90
        1
300
VALUE
 93
        6
 90
        4
  1
{\fSimSun|b1|i0|c134|p34;90%}
 94
        0
300

302
{\fSimSun|b1|i0|c134|p34;90%}
304
ACVALUE_END
 91
        0
309
CELLCONTENT_END
  1
FORMATTEDCELLCONTENT_BEGIN
170
     1
300
CONTENTFORMAT
  1
CONTENTFORMAT_BEGIN
 90
      227
 91
        0
 92
        4
 93
        0
300

 40
0.0
140
1.0
 94
        1
 62
     3
340
7A5
144
2.5
309
CONTENTFORMAT_END
309
FORMATTEDCELLCONTENT_END
309
LINKEDTABLEDATACELL_END
  1
FORMATTEDTABLEDATACELL_BEGIN
300
CELLTABLEFORMAT
  1
TABLEFORMAT_BEGIN
 90
        1
170
     1
 91
       16
 92
        0
 62
   257
 93
        1
300
CONTENTFORMAT
  1
CONTENTFORMAT_BEGIN
 90
        0
 91
        0
 92
      512
 93
        0
300

 40
0.0
140
1.0
 94
        5
 62
     0
340
0
144
0.18
309
CONTENTFORMAT_END
171
     1
301
MARGIN
  1
CELLMARGIN_BEGIN
 40
1.5
 40
1.5
 40
1.5
 40
1.5
 40
0.18
 40
0.18
309
CELLMARGIN_END
 94
        4
 95
        2
302
GRIDFORMAT
  1
GRIDFORMAT_BEGIN
 90
       37
 91
        1
 62
     0
 92
       -2
340
14
 93
        0
 40
1.125
309
GRIDFORMAT_END
 95
        4
302
GRIDFORMAT
  1
GRIDFORMAT_BEGIN
 90
       37
 91
        1
 62
     0
 92
       -2
340
14
 93
        0
 40
1.125
309
GRIDFORMAT_END
 95
       16
302
GRIDFORMAT
  1
GRIDFORMAT_BEGIN
 90
       37
 91
        1
 62
     0
 92
       -2
340
14
 93
        0
 40
1.125
309
GRIDFORMAT_END
 95
       32
302
GRIDFORMAT
  1
GRIDFORMAT_BEGIN
 90
       37
 91
        1
 62
     0
 92
       -2
340
14
 93
        0
 40
1.125
309
GRIDFORMAT_END
309
TABLEFORMAT_END
309
FORMATTEDTABLEDATACELL_END
  1
TABLECELL_BEGIN
 90
        0
 91
        0
309
TABLECELL_END
 91
        0
301
CUSTOMDATA
  1
DATAMAP_BEGIN
 90
        0
309
DATAMAP_END
309
LINKEDTABLEDATAROW_END
  1
FORMATTEDTABLEDATAROW_BEGIN
300
ROWTABLEFORMAT
  1
TABLEFORMAT_BEGIN
 90
        2
170
     0
309
TABLEFORMAT_END
309
FORMATTEDTABLEDATAROW_END
  1
TABLEROW_BEGIN
 90
        3
 40
6.333333333333332
309
TABLEROW_END
 92
        0
100
AcDbFormattedTableData
300
TABLEFORMAT
  1
TABLEFORMAT_BEGIN
 90
        4
170
     0
309
TABLEFORMAT_END
 90
        0
100
AcDbTableContent
340
7F
  0
TABLEGEOMETRY
  5
9E6
330
9E8
100
AcDbTableGeometry
 90
        4
 91
        3
 92
       12
 93
        3
 40
3.0
 41
5.5
330
0
 94
        1
 10
21.325
 20
-1.5
 30
0.0
 11
21.325
 21
-1.5
 31
0.0
 43
0.0
 44
2.5
 45
0.0
 46
2.5
 95
        0
 93
        3
 40
6.176923076923077
 41
5.5
330
0
 94
        1
 10
16.41153846153846
 20
-1.916666666666664
 30
0.0
 11
18.0
 21
-3.166666666666664
 31
0.0
 43
3.176923076923077
 44
2.5
 45
3.176923076923077
 46
2.5
 95
        0
 93
        3
 40
6.286813186813187
 41
5.5
330
0
 94
        1
 10
16.3565934065934
 20
-1.916666666666664
 30
0.0
 11
18.0
 21
-3.166666666666664
 31
0.0
 43
3.286813186813187
 44
2.5
 45
3.286813186813187
 46
2.5
 95
        0
 93
        3
 40
9.858241758241756
 41
6.20054945054945
330
0
 94
        1
 10
17.89587912087911
 20
-1.566391941391941
 30
0.0
 11
21.325
 21
-3.166666666666667
 31
0.0
 43
6.858241758241757
 44
3.20054945054945
 45
6.858241758241757
 46
3.20054945054945
 95
        0
 93
        3
 40
9.913186813186813
 41
6.186813186813187
330
0
 94
        1
 10
14.54340659340659
 20
-1.573260073260072
 30
0.0
 11
18.0
 21
-3.166666666666667
 31
0.0
 43
6.913186813186813
 44
3.186813186813187
 45
6.913186813186813
 46
3.186813186813187
 95
        0
 93
        3
 40
9.913186813186813
 41
6.186813186813187
330
0
 94
        1
 10
14.5434065934066
 20
-1.573260073260072
 30
0.0
 11
18.0
 21
-3.166666666666667
 31
0.0
 43
6.913186813186813
 44
3.186813186813187
 45
6.913186813186813
 46
3.186813186813187
 95
        0
 93
        3
 40
13.34725274725275
 41
6.255494505494505
330
0
 94
        1
 10
16.15137362637362
 20
-1.538919413919408
 30
0.0
 11
21.325
 21
-3.166666666666664
 31
0.0
 43
10.34725274725275
 44
3.255494505494505
 45
10.34725274725275
 46
3.255494505494505
 95
        0
 93
        3
 40
11.64395604395604
 41
5.5
330
0
 94
        1
 10
13.67802197802197
 20
-1.916666666666664
 30
0.0
 11
18.0
 21
-3.166666666666664
 31
0.0
 43
8.643956043956045
 44
2.5
 45
8.643956043956045
 46
2.5
 95
        0
 93
        3
 40
11.64395604395604
 41
5.5
330
0
 94
        1
 10
13.67802197802199
 20
-1.916666666666664
 30
0.0
 11
18.0
 21
-3.166666666666664
 31
0.0
 43
8.643956043956045
 44
2.5
 45
8.643956043956045
 46
2.5
 95
        0
 93
        3
 40
16.93241758241758
 41
6.214285714285714
330
0
 94
        1
 10
14.3587912087912
 20
-1.559523809523808
 30
0.0
 11
21.325
 21
-3.166666666666666
 31
0.0
 43
13.93241758241758
 44
3.214285714285714
 45
13.93241758241758
 46
3.214285714285714
 95
        0
 93
        3
 40
8.196153846153844
 41
5.5
330
0
 94
        1
 10
15.40192307692307
 20
-1.916666666666666
 30
0.0
 11
18.0
 21
-3.166666666666666
 31
0.0
 43
5.196153846153845
 44
2.5
 45
5.196153846153845
 46
2.5
 95
        0
 93
        3
 40
8.196153846153844
 41
5.5
330
0
 94
        1
 10
15.40192307692307
 20
-1.916666666666666
 30
0.0
 11
18.0
 21
-3.166666666666666
 31
0.0
 43
5.196153846153845
 44
2.5
 45
5.196153846153845
 46
2.5
 95
        0
  0
DICTIONARY
  5
205
330
22
100
AcDbDictionary
280
     1
281
     1
  0
DICTIONARY
  5
1F9
330
ED
100
AcDbDictionary
280
     1
281
     1
  3
FBXASSET
360
1FA
  0
DICTIONARY
  5
1F7
330
EC
100
AcDbDictionary
280
     1
281
     1
  3
FBXASSET
360
1F8
  0
DICTIONARY
  5
173
330
EE
100
AcDbDictionary
280
     1
281
     1
  3
BUMPTILE
360
175
  3
DIFFUSETILE
360
174
  3
FBXASSET
360
1FB
  3
OPACITYTILE
360
176
  3
REFLECTIONTILE
360
177
  0
DICTIONARY
  5
162
330
7F
100
AcDbDictionary
280
     1
281
     1
  3
ACAD_ROUNDTRIP_2008_TABLESTYLE_CELLSTYLEMAP
360
9E4
  0
ACDBASSOCACTION
  5
842
330
71E
100
AcDbAssocAction
 90
        2
 90
        0
330
71E
360
843
 90
        4
 90
        2
 90
        2
360
844
360
845
 90
        0
 90
        1
360
846
 90
        0
 90
       16
 90
        0
  1
HorizontalStartExtension
 90
        0
 90
        1
 40
1.000000000000000E+60
330
0
330
0
 90
        0
  1
HorizontalEndExtension
 90
        0
 90
        1
 40
1.000000000000000E+60
330
0
330
0
 90
        0
  1
VerticalStartExtension
 90
        0
 90
        1
 40
1.000000000000000E+60
330
0
330
0
 90
        0
  1
VerticalEndExtension
 90
        0
 90
        1
 40
1.000000000000000E+60
330
0
330
0
 90
        0
  1
HorizontalStartOvershoot
 90
        0
 90
        1
 40
3.5
330
0
330
0
 90
        0
  1
HorizontalEndOvershoot
 90
        0
 90
        1
 40
3.5
330
0
330
0
 90
        0
  1
VerticalStartOvershoot
 90
        0
 90
        1
 40
3.5
330
0
330
0
 90
        0
  1
VerticalEndOvershoot
 90
        0
 90
        1
 40
3.5
330
0
330
0
 90
        0
  1
CrossHairLengthExpression
 90
        0
 90
        1
  1
0.1x
330
0
330
0
 90
        0
  1
CrossHairGapExpression
 90
        0
 90
        1
  1
0.05x
330
0
330
0
 90
        0
  1
CenterDepId
 90
        0
 90
        1
330
845
330
0
330
0
 90
        0
  1
CachedCircleRadius
 90
        0
 90
        1
 40
37.5
330
0
330
0
 90
        0
  1
SubentLineType
 90
        0
 90
        1
  1
CENTER2
330
0
330
0
 90
        0
  1
SubentLineWeight
 90
        0
 90
        1
 40
-1.0
330
0
330
0
 90
        0
  1
SubentLinetypeScale
 90
        0
 90
        1
 40
1.0
330
0
330
0
 90
        0
  1
CachedAssociateStatus
 90
        0
 90
        1
 40
1.0
330
0
330
0
  0
ACDBASSOCACTION
  5
847
330
71E
100
AcDbAssocAction
 90
        2
 90
        0
330
71E
360
848
 90
        5
 90
        3
 90
        3
360
849
360
84A
360
84B
 90
        0
 90
        2
360
84C
360
84D
 90
        0
 90
       14
 90
        0
  1
StartExtLength
 90
        0
 90
        1
 40
1.000000000000000E+60
330
0
330
0
 90
        0
  1
EndExtLength
 90
        0
 90
        1
 40
1.000000000000000E+60
330
0
330
0
 90
        0
  1
StartOvershoot
 90
        0
 90
        1
 40
3.5
330
0
330
0
 90
        0
  1
EndOvershoot
 90
        0
 90
        1
 40
3.5
330
0
330
0
 90
        0
  1
EdgeRefDirectionEnding
 90
        0
 90
        2
 90
        0
330
0
 90
        1
330
0
330
0
 90
        0
  1
CenterDepId
 90
        0
 90
        1
330
84B
330
0
330
0
 90
        0
  1
CachedCenterLineLength
 90
        0
 90
        1
 40
1.800000000000068
330
0
330
0
 90
        0
  1
CachedCenterLineDirectionX
 90
        0
 90
        1
 40
1.0
330
0
330
0
 90
        0
  1
CachedCenterLineDirectionY
 90
        0
 90
        1
 40
0.0
330
0
330
0
 90
        0
  1
CachedCenterLineDirectionZ
 90
        0
 90
        1
 40
0.0
330
0
330
0
 90
        0
  1
SubentLineType
 90
        0
 90
        1
  1
CENTER2
330
0
330
0
 90
        0
  1
SubentLineWeight
 90
        0
 90
        1
 40
-1.0
330
0
330
0
 90
        0
  1
SubentLinetypeScale
 90
        0
 90
        1
 40
1.0
330
0
330
0
 90
        0
  1
CachedAssociateStatus
 90
        0
 90
        1
 40
1.0
330
0
330
0
  0
XRECORD
  5
1FA
102
{ACAD_REACTORS
330
1F9
102
}
330
1F9
100
AcDbXrecord
280
     1
 70
     1
 90
429727718
  1
D62C5603-E3A1-4AEA-B7FB-FE5D8D0755AF
310
504B03040A0000080000CC70623B3DEE336E79000000790000001B0000006175746F6465736B2D64657369676E2D7061636B6167652E786D6C3C3F786D6C2076657273696F6E3D22312E302220656E636F64696E673D227574662D3822203F3E3C666F726D6174733E3C666F726D61743E687474703A2F2F736368656D612E
310
6175746F6465736B2E636F6D2F64657369676E2D7061636B6167652F323030393C2F666F726D61743E3C2F666F726D6174733E504B0304140006080800CC70623BD486FD9CA0000000F4000000130000005B436F6E74656E745F54797065735D2E786D6C7D8EC10E82300C865F65E91D8A1E8C310C0EEA1BF002731658846E
310
D98AC1B77784ABF1D8FE5FBFBF75BBCE937A534CCEB38643598122B6FEE978D0B0485F9C41B54DDD7D022595594E1A469170414C76A4D9A4D207E29CF43ECE46F218070CC6BECC4078ACAA135ACF422C856C0E68EA1BF5669944DDD7BCDE7B1F8E415D77AECB980613C2E4AC91FC167A2B244592486606FC29C8FD7F045B9A
310
EF7053A7E60B504B0304140006080800CC70623B853B8169EB0000007C01000008000000636F72652E786D6C8D90416EC3201045AF62CDB6C206821CC7C244919D9CA01740401C94182C03558F5F9C3852BBEB6A467FFE9B197D7EFC9E1EC5975982F5AE035262288C535E5B377690E21535501C055FBC8FBF6C503839990E
310
5619041F179FE64D52DE45E362569DD7661365082642A11EB9E920A89B99642953CC8E702F67A9EE7234257977194EC9EAE275C4EABCCF5EAD5940D4AC6F0E35A568B8F43562CD7046CD199FD07E60174276A7BE677B5EADB0E0D14EEFFB6A31321A0D82627C4084204C3F096B71DD52F6819B16635EADF63F509AF53FA164
310
5DDCD1EDDD17164090FCC8732078B56691CB33A85CD7DCC40F504B0304140006080800CC70623B55019EA25F0000007C00000007000000636E782E786D6C4DCB3B0E80201045D1AD90E915ED2CF8AC45050C11660C8261F98AB1B07AC9C97D42D718D865D3E909258CFD00CCE24AC6E326A164D74DC0B4128928FF32603847
310
2BA13128B1252AC747C6BAB984FC68F0B87FE8960A5C09FE86CFB69FBA01504B0304140006080800CC70623BDBABAAF470010000D40300000C0000006662782F636F72652E786D6CC553D16E823014FD95A6AF4B694182CC941A83FA05FB810A9511A125A5257EFE2E82712ECEB8A7F100CD39F7F69E734AF9FADC366850B6
310
AF8DCE7018308C942E4C59EB2AC3DE1D498AD15A706B8CFB56869196ADCAF00863C12B6B7C374385D14E6907A836A59A41D9F7CA615434B0C8705F7CAA5606D23BA8E84F41278B93AC54100640439DE0BDB320004D43C63716C7C399D30917DCFBBA9CD9BA8469F5B156168B24CED3F7248AC8769F27244EB73B92EED8862C
310
B7F13E0C179B3C8F979C8ECD82BBBABDAA2BAC924E9558448CBD9330242CFA08E3154B5651FCC6D215639C8EE5774DBE2B5F6CF2B5768B68963BB5F5588420E442FC700B1139D4CB01F450C1E918227C2E09DF070D8140C84E1E9AAB8F1340832A9CB13130A5F1376A908D57309505ECF2A0DF179C4E9D30F5B239B87E3823
310
7A79C6F31DE1A8A5AEC08474B03C7837EAE4938639B44E5932B833D2C6B6B279CDC613877FA26EE21F4A2A4C63EC7F29A2F301D1F9F7A0E37D145F504B0304140006080800CC70623B9C113CC27E0000009D0000000B0000006662782F636E782E786D6C4DCCDF0A83201C86E15B91DFB94BFB330DD428C8FB886521330DA7
310
6397BF1A1DECE883878F57749FCDA1B7892F1BBC047A23808C7F84D9FA55424E0BE6803A256208E9EF06C84F9B91703228B1C690F78B66B34CD9A5439DF5CF0BFBF65E35BCA1B8D6A5C6F540381E886698B5741C695F9503EBA150A2F8958E3DC3EA0B504B0304140006080800CC70623B7DF2F77C2A010000120200003100
310
00006662782F41393633353835312D344632462D344230382D423046372D3739314545314133324237412F636F72652E786D6C8D51DB8EC22014FC15C2939B0D2DB4B45643319AE817EC0F6041255A68B86CFCFC856D4D76DF7CE190393373060EDB3DC707F856CE6B6B7A480A0C81328395DA5C7B18C3057510EC3873D686
310
3F34088C18550F330C39BB3A1BA7051AAC09CA84841A2BD5020AEF55806078A44B0FFD7053A328440C89E1EFC52486BBB8AA8214A99D789CF9E05200300FC927E4FB4D5B375D43103D5527440FB843077C5AA3F5861C8F645F5787F59E95B390B318B55CE45AA638FAA2957BD7248B390B7A7CC51F9C124149C82B8C378810
310
84AB2F42B7B8DD56F413775B8C5999E9FF4471926F8AA236A1AE96B8B3CC434E5839373893369E1FAF30EA395917409EB7F26AF8801C171837A4A6AC9C89E9F9C9B1A58BA30FD6A5EF5DDDCF894B9AD9B6A59C957943A9FCAE2FD5BC4DFE03504B0304140006080800CC70623BAD7543B64E01000033030000300000006662
310
782F41393633353835312D344632462D344230382D423046372D3739314545314133324237412F636E782E786D6CD593CD6EC32010845F0571AD6CE3D48AD20813A9873E410FBD12D82434182C7EAAE6EDBB2424CD25871E7B41D6EC30B3FA84F9E67BB2E40B4234DE8DB46F1925E094D7C6ED479AD3AE5951B2113C789FEE
310
6C943839C1488B4C05DF079FE72A69D8C96C13AAD6B8631503449F83828872B949AC57D26200B826A308D316B4064D6E46FCDA41C05550DC9E483A00797BFD207EFB092A45DE9514C1BBD22178396BD39D891265658C238DEA00936C654E5E433CB65A26D9F6EDB5EBC14EBF49A45CB856E66048291F6939A9A81BB5C89177
310
38143CA680F4AA299D66A042CEB3354A2684DC9D8D178FE0D9B8B41CAAD720F880EE7EF93C0C18769E099ECC04D5A102C8049A8A05632F4DDF376CF1DE0F6BB65C2F8627B65A33C6BB62177CEBBDAD973006829F89F22E814B54F4BC2BE347F8AA8F681390B50FA73F804400B5F542E796F19FF974E7F78DB802FE05E20750
310
4B0304140006080800CC70623BE75B7789680500003C100000340000006662782F41393633353835312D344632462D344230382D423046372D3739314545314133324237412F6F626A656374732E786D6CAD575B8F9B3818FD2B887D06C22499CB8AA1CA655245D5B455A356FB305264C061D8018C6C3393D95FBFC7600890
310
A4CD5EF210B0B1BFEBF98E3F7B1FF6596ABC522E1296DF9BAE3D320D9A872C4AF2F8DE2CE5CEBA358D0FBEC719939D65A691938CDE9B6ADAF4BD98B3B2D05311DD91329583D9D5FC0F438434A7A611A644887B5384CF34233629258BA878B12322891DEFF6B66BD70BFB62634E8AE781D082709A4B588AF91C528CDA28B73F
310
1C998EEF39EABBEFA97FBD6A7C7E9553F9D3D79FE442923C3C523610337627CB87ABE99D359D4CC6D6E4FACAB5E6ABF9D2726FC6A3C5F56271377BB88362213924694B38DD99FE47C48627A1E7D49F5A8BB5E1A74C0A599ED3B0F21F1E56366B89112D681E218F0915D0D6F17AD41FBA2A369DCF6335D62ABBD39779D5DDD1
310
11D4D8DE3CBB96B2E04FB8202E41051754A1AA8E8F76B4C6DFE810B580B1547F4B84911149794252234D024EF8BBE963A95AE27B3D310A9D5C215C7960FAEE415ED75694C6AFB17BCACA5D99A60A9AA65F217B0BFC53292ACB92BF283FAD0D3621576592CB5BED907C2FA8E9DF794E35E97BEA31BED21FEB401ABB94C44839
310
DCACBF0E1C5DA8DA5B2F4DFFD32AD86F543D9E565E7056502E157C00AD2671CD534549AB752FCA9CDA00677A313F04E51B22FF19E57B300579E3C97EB29F682D92935CEC18CF901B7B54FD8C51F362B56FC72FE0B3C1EAE335EDCCBF5AEC39ADB17DC238973F804BA5E6F6BFE7AF1FB32E523BE9F3BD571418E3631DCA4D48
310
5250CF639223210A9446CA30052EDF057BD35F8329C1ECD84552BF0DC8D18BE7BCE23BFE6BD960AB4A7DE79923A103BEBD80F911CBAA2C60DB19B01CF164A5583B772EE6D3FFA56666CBCDA74DC97724A48F9A58967497E489C4D979006FD7A05E227A1EBDD0F737C623387A9C844D3709995625106D157315F8B8392CD4E0
310
A0B9A720C4BE9829CEF37EA1E13111214D53925356365ADA634861B52519DD27A00AEB808EAF0628E6F435519D446F45CF2C9CF5214F0A15B2F6D06B79DA3EE3CBF7F56780D2F4E7EF73A0F5E5B02A38D07DC852C6B7C1FBB6664213E0C39E3EBA7FF4E1AD23EA2829407C85E586727488B751B2DB9502BC7B228A3FD68B6E
310
A65A22397E690AA8D158D7E404EC8CDA235CC3B7D1898680131CEC2CDF2638C65196279577750F15884AEE19F94199155B92B13297978469D4F8D358DF0AEF7631E28DC8F0D9F437D5D39A83B2231A1D52D543813A824EF8D44BCFF2FA6A31BD1E8DAD87F1CCB526B3879935BF59CDADD5C37479BB1CDD4CA7B3556B516589
310
EF352754B706114D9C885EC9131DE6EFEB43D99AFE2391C2F958179413D7CFEF6B1B6DB1E7600F00DE6E5C67454A339A4BA2E0FBA85ED26F045D454F463DBFCE484C2F90F2E5E3666003662ED8F755951A7D1BECD5B30B550B2785C8E7320B7292A4838DDA71BBC863ED7613CAF659337A3354231D4FF4A182A54904C2898C
310
98B28C4AD0CE056CCF332A80986E571EE9DBC305BB5FEB7E509220A58D25CF042D712A806AC0AD0C657FDEF80D2D9CEAA2EE4D1C76F60BFE74219A06527D6F82DF6412526107381E55E353090704D085B52408A8913C4ED159D79BDA71BB4BC506F4831350EB6F975CD22D69BF7AC49B91A2C0A9DDA3D5CA36AD20FC478E37
310
E61844E2352865EBCB61A275A65283CAAA9DD27703B4102F5AF51EF5F573B75CBB5AD38BC845F7A49F82A0966A49C2E3EA5EA0ECD326CD965F1DB402C6FA8B51A4658C5C5E2EC9E214602E55810345408596591009A82E7E7FFACA19EEA299B14A0081A705CB3296EBC14CDF658DCD336EA6D1136881AAEB87B81AB9EE53D5
310
F5EB8BC8362082DA24122F98680A4E7930C01A0079749CEA14382A0783E5EBA5A10F8C098456A03D6A4AEB6BB881E2513747552A5DB22C7EDAF83BD5528081A365F7FF06504B0304140006080000CC70623B000000000000000000000000350000006662782F41393633353835312D344632462D344230382D423046372D37
310
39314545314133324237412F76657274696365732E62696E504B0304140006080800CC70623BF270F1330600000004000000360000006662782F41393633353835312D344632462D344230382D423046372D3739314545314133324237412F747269616E676C65732E62696E636660600000504B0304140006080000CC7062
310
3B000000000000000000000000370000006662782F41393633353835312D344632462D344230382D423046372D3739314545314133324237412F617474726962757465732E62696E504B0304140006080800CC70623B08DA0BD19000000041010000360000006662782F41393633353835312D344632462D344230382D4230
310
46372D3739314545314133324237412F6469726563746F72792E786D6C858F410AC3201045AF22B36F53E9A60B35CBEEBAE80D244E44489C6234F4F835464A48035D0DF398FF9F8AF63D0E6CC63039F212F8F9020C7D47C6792B21C5FE7403D62A1188E2E60C98D7234A5830286103A55745067B9D86B8A3CF9C7F90C11DE6
310
07FB144396D7B6A82D282E9A152AD114D5EF2CB866EEE831B8EEA07A7BB5A8D7D61A2BAAEB7FD5F70921FF497D00504B0304140006080800CC70623BEDD1DC58FD000000A00100003B0000006662782F41393633353835312D344632462D344230382D423046372D3739314545314133324237412F7265736F75726365732F
310
636F72652E786D6C8D504B6E833010BD0A9A6D65B00922041947112427E8052C33A156828DFCA97AFC9A40A576D7CDCCE87D344F8F9FBFE667F689CE6B6B3A6039850C8DB2A336530731DC4903D95970676DF82583CCC8193B5861107C72362E3BA4AC096842428D1D7107A5F7182053CF7474E0D507CE32973124857FE48B
310
540F3961CEF244279DE03EB81420DB9EAC1384436FA353E879B1B182C7A8C75DA3C7F453DF353A1075D537A7BA6464B8F535A99AE14A9A2BBD90E350DD183B5CFABE3AF262350B1EF4FC9351399401471025A527C218A1E53BAB5A5AB765F5469B96525EACF23FA6B88CFF34456DC2A1DCE36E360F82A5202F42F062ED2BAD
310
579969AFDD8A6F504B010214000A0000080000CC70623B3DEE336E79000000790000001B00000000000000000000000000000000006175746F6465736B2D64657369676E2D7061636B6167652E786D6C504B01021400140006080800CC70623BD486FD9CA0000000F40000001300000000000000000000000000B20000005B
310
436F6E74656E745F54797065735D2E786D6C504B01021400140006080800CC70623B853B8169EB0000007C010000080000000000000000000000000083010000636F72652E786D6C504B01021400140006080800CC70623B55019EA25F0000007C000000070000000000000000000000000094020000636E782E786D6C504B
310
01021400140006080800CC70623BDBABAAF470010000D40300000C00000000000000000000000000180300006662782F636F72652E786D6C504B01021400140006080800CC70623B9C113CC27E0000009D0000000B00000000000000000000000000B20400006662782F636E782E786D6C504B01021400140006080800CC70
310
623B7DF2F77C2A010000120200003100000000000000000000000000590500006662782F41393633353835312D344632462D344230382D423046372D3739314545314133324237412F636F72652E786D6C504B01021400140006080800CC70623BAD7543B64E010000330300003000000000000000000000000000D2060000
310
6662782F41393633353835312D344632462D344230382D423046372D3739314545314133324237412F636E782E786D6C504B01021400140006080800CC70623BE75B7789680500003C10000034000000000000000000000000006E0800006662782F41393633353835312D344632462D344230382D423046372D3739314545
310
314133324237412F6F626A656374732E786D6C504B01021400140006080000CC70623B0000000000000000000000003500000000000000000000000000280E00006662782F41393633353835312D344632462D344230382D423046372D3739314545314133324237412F76657274696365732E62696E504B01021400140006
310
080800CC70623BF270F133060000000400000036000000000000000000000000007B0E00006662782F41393633353835312D344632462D344230382D423046372D3739314545314133324237412F747269616E676C65732E62696E504B01021400140006080000CC70623B0000000000000000000000003700000000000000
310
000000000000D50E00006662782F41393633353835312D344632462D344230382D423046372D3739314545314133324237412F617474726962757465732E62696E504B01021400140006080800CC70623B08DA0BD1900000004101000036000000000000000000000000002A0F00006662782F41393633353835312D344632
310
462D344230382D423046372D3739314545314133324237412F6469726563746F72792E786D6C504B01021400140006080800CC70623BEDD1DC58FD000000A00100003B000000000000000000000000000E1000006662782F41393633353835312D344632462D344230382D423046372D3739314545314133324237412F7265
310
736F75726365732F636F72652E786D6C504B0506000000000E000E0080040000641100000000
  0
XRECORD
  5
1F8
102
{ACAD_REACTORS
330
1F7
102
}
330
1F7
100
AcDbXrecord
280
     1
 70
     1
 90
429727718
  1
30362254-06B7-45E0-A893-8CFA70E3D6BC
310
504B03040A0000080000CC70623B3DEE336E79000000790000001B0000006175746F6465736B2D64657369676E2D7061636B6167652E786D6C3C3F786D6C2076657273696F6E3D22312E302220656E636F64696E673D227574662D3822203F3E3C666F726D6174733E3C666F726D61743E687474703A2F2F736368656D612E
310
6175746F6465736B2E636F6D2F64657369676E2D7061636B6167652F323030393C2F666F726D61743E3C2F666F726D6174733E504B0304140006080800CC70623BD486FD9CA0000000F4000000130000005B436F6E74656E745F54797065735D2E786D6C7D8EC10E82300C865F65E91D8A1E8C310C0EEA1BF002731658846E
310
D98AC1B77784ABF1D8FE5FBFBF75BBCE937A534CCEB38643598122B6FEE978D0B0485F9C41B54DDD7D022595594E1A469170414C76A4D9A4D207E29CF43ECE46F218070CC6BECC4078ACAA135ACF422C856C0E68EA1BF5669944DDD7BCDE7B1F8E415D77AECB980613C2E4AC91FC167A2B244592486606FC29C8FD7F045B9A
310
EF7053A7E60B504B0304140006080800CC70623B1EC5D7A3EB0000007C01000008000000636F72652E786D6C8D90416EC3201045AF82665B6103C6756C6122AB4D4ED00B204C5C94182C03558F5F9C3852BBEB6A467FFE9B197D71FC9E6FE8CBACC17AD7032D0820E3B41FAD9B7A48F1820F808E52ACDEC75F36404ECDA687
310
4D0629A6D5A76597B477D1B89855E747B38B2A041301E95B6E7A08FAD3CCAA50296647B8168BD2573599823EBB0CA76447F43862C7BCCF5EAC59410E4DDD9C7973C2755553CCCFA4C603E3040F1565ED3B1FDE4E432BCA0D9622DAF9795FAF464533826484B498524CD807E51D79ED187F21878E10516EF63F505AC67F42C9
310
BA58B1FDDD071640D2FCC87D2045B96591CB3DA85CB7DCE40F504B0304140006080800CC70623B55019EA25F0000007C00000007000000636E782E786D6C4DCB3B0E80201045D1AD90E915ED2CF8AC45050C11660C8261F98AB1B07AC9C97D42D718D865D3E909258CFD00CCE24AC6E326A164D74DC0B4128928FF32603847
310
2BA13128B1252AC747C6BAB984FC68F0B87FE8960A5C09FE86CFB69FBA01504B0304140006080800CC70623B8C9102E971010000D40300000C0000006662782F636F72652E786D6CC5535B6E833010BC8AE5DF0A6C08340F1947A84D4ED00B38C6A128602363A31CBFCB234A53A551FA553EC09AD9F5CE8C31DB9E9B1AF5CA
310
7695D1198E428A91D2D214952E33ECDD315861B4E5CC1AE3BE9561A445A3323CC098B3D21ADFCE9034DA29ED00D5A6503328BA4E398C640D8B0C77F253352214DE4145770A5B214FA2546114020D759C75CE8200340D19DE981F0F6746269C33EFAB6266AB02A655C74A59CCF365BADC27CB5D902ED22848F6340DF238A141
310
BE88E2F57B92BFEDF23523433367AE6A2EEAA455C2A902F398D2751045018D3FA264435F3771F242571B4A1919CA6F9A7C5B3CD9E42BED16F12C776AEB308F40C848FC700B1139D4891EF410CEC810227CC6846F8386402064270EF5C5C709A05E49676C024C61FC95EA45ED154CA5211D1FF4FB8291A913A68E9B83EBBB33
310
E2A7673CDE118E5AE8124C0807CB8377834E366998436B950D7A7746DAD846D4CFD978E0F04FD455FC5D49D2D4C6FE9722321F10997F0F32DC47FE05504B0304140006080800CC70623BFFEA85907E0000009D0000000B0000006662782F636E782E786D6C4DCCD10A83201886E15B91FFDC95D95A811AB6F23E625948A6C3
310
E9D8E5AF46073BFAE0E1E365ED67B3E8ADC3CB78C7815C7240DA3DFC64DCC221C519D7805AC182F7F1EF06C88D9BE6703008B6049F9E274D7A1E938DBB5AE3D6131B2589BA0D3D965551E0B2EA732C9B9A624AAEB41E3A557677029960D9AFB4EF11165F504B0304140006080800CC70623B4FEEA4082C0100001202000031
310
0000006662782F39464131463745442D413632322D343644302D413938332D3331353338454246344243312F636F72652E786D6C8D515B6EC32010BC0AE2AB55850DD871ED0813254D72825EC00192A2C460F1A872FC42ED48ED5F7E00CDCECCCEB26C731F6FE05B39AFADE921293004CA082BB5B9F43086336A21D870E6AC
310
0D7F68109861543DCC30E4ECE26C9C164858139409093556AA051CBC570102714B8F1E7AF1A5C6A11862480C7F2DA6415C878B2A4891CA89C7990F2E050073937C42DE1DB7E4F87ED8A36D4329AA9B3D46DBAEAD504556557BD81DEBDD0761E52CE42C462D17B996298E3E6BE59E35C962CE821E1FF18553435012728A7187
310
0841987E927A8D9B35ADDF70BBC6989599FE4F1427F9A4286A132ABAC49D651EF234CD5CE04CDA78BA3DC2A8FB645D00B9DF8B57E215725C60BCA2A463E54C4CE327C7A65E1C7DB02E7DEFCBF594B864C5CA6CDBD49C957943E9FA5D5FBAF336F90F504B0304140006080800CC70623BAD7543B64E01000033030000300000
310
006662782F39464131463745442D413632322D343644302D413938332D3331353338454246344243312F636E782E786D6CD593CD6EC32010845F0571AD6CE3D48AD20813A9873E410FBD12D82434182C7EAAE6EDBB2424CD25871E7B41D6EC30B3FA84F9E67BB2E40B4234DE8DB46F1925E094D7C6ED479AD3AE5951B2113C
310
789FEE6C943839C1488B4C05DF079FE72A69D8C96C13AAD6B8631503449F83828872B949AC57D26200B826A308D316B4064D6E46FCDA41C05550DC9E483A00797BFD207EFB092A45DE9514C1BBD22178396BD39D891265658C238DEA00936C654E5E433CB65A26D9F6EDB5EBC14EBF49A45CB856E66048291F6939A9A81BB5
310
C8917738143CA680F4AA299D66A042CEB3354A2684DC9D8D178FE0D9B8B41CAAD720F880EE7EF93C0C18769E099ECC04D5A102C8049A8A05632F4DDF376CF1DE0F6BB65C2F8627B65A33C6BB62177CEBBDAD973006829F89F22E814B54F4BC2BE347F8AA8F681390B50FA73F804400B5F542E796F19FF974E7F78DB802FE05
310
E207504B0304140006080800CC70623B16AB87BA640500003C100000340000006662782F39464131463745442D413632322D343644302D413938332D3331353338454246344243312F6F626A656374732E786D6CAD575B6FA33818FD2B887DE6924B3BED8A326A92B68A663B534DD4D13E548A0C38942D60649B369D5FBFC7
310
600890A493BDE42160637FD7F31D7FF63E6FB3D478A55C242CBF3247B66B1A340F5994E4F19559CA8D75611A9F7D8F33263BCB4C232719BD32D5B4E97B316765A1A722BA21652A07B3B7B33F0D11D29C9A46981221AE4C113ED38CD8A4942CA2E2C58E882476BCD9DA23BB5ED8171B73523C0F841684D35CC252CCE79062D4
310
468DFA43D7747CCF51DF7D4FFDEB5593E3AB9CCA9FBEFE241792E4E19EB28198C968BAB8199F5D5A67D3E9C49A9E8F47D6EC76B6B0469F26EEFC7C3EBFBCBEB98462213924694B38DD98FE1D62C393D073EA4FADC5DAF04326852CCF6958F90F0F2B9BB5C48816348F90C7840A68EB78EDF68723159BCEE7891A6B95DDE9D3
310
BCEAEEE8086A6C6F9E5D4B59F0175C10A7A0820BAA5055C7473B5AE3CFDD452D602CD5DF12616444529E90D448938013FE6EFA58AA96F85E4F8C42275708571E98FE6827AF6B2B4AE3D7D83D64E5A64C53054DD3AF90BD06FEA9149565C94FCA0F6B834DC85599E4F2423B24DF0B6AFA979E534DFA9E7A4CC6FA631D486393
310
921829879BF5D781A373557BCB85E97FB90DB62B558F8795179C15944B051F40AB495CF35451D26A4727654E6D8033BD98EF82F21D91FF8AF2DD9982BCF1643BDD4EB516C9492E368C67C88DED563FC36D5EACF66DFF057C3658BDBFA69DF9578B3DA735B64F18C7F20770A9D45CFCF7FCF563D6456A277DBEF78A02637CA2
310
43B90A490AEAB94F72244481D24819A6C0E59B606BFA4B3025981DBB48EAB701D97BF19C577CC77F2D1B6C55A9EF3C732474C0B727303F625995056C3B02963D9EAC146BE78EC5FCEC7FA999EBC5EACBAAE41B12D27B4D2C0BBA49F244E2ECDC81B76B502F113D8F5EE8FB1BE3111CDD4FC2AA9B844CAB1288B68AB90A7CDC
310
1C166AB0D3DC5310625FCC14E779BFD0709F8890A629C9292B1B2DED31A4B0DA928CEE135085754027E3018A397D4D5427D15BD1330B677DC8934285AC3DF45A9EB68FF8F2B8FC0A509AFEECFD0FF2DE25CC6047F7214B195F07EFEB9A094D800F7BFAE8FED187B78EA8A3A400F115961BCAD1215E47C966530AF0EE8128FE
310
58CEBB996A8964FFA529A046635D9353B0336A8F700DDF46271A024E70B0B37C9DE01847591E54DED53D54202AB947E4076556AC49C6CA5C9E1226B7F1A7B1BE15DEED62C41B91E1B3E9AFAAA735036547343A925075041DF0A9979E893B391F8FCFA6967B3EFB644DCF6E5CEBFAE272625DCC6FAF3FB93793C5F90CE1EF57
310
407342756B10D1C489E8953CD1617E5CEECAD6F4EF8914CE5D5D504E5C3F1F9736DA62CFC11E00BCDDB8CC8A9466349744C1F75EBDA4DF09BA8A9E8C7A7E9991989E20E5DBDD6A6003664ED8F7A04A8DBE0DF6EAD9B9AA858342E47399053949D2C146EDB85DE4B176BB0965FBAC19BD19AA918E27FA50C1D22402E144464C
310
59462568E704B6E71915404CB72B8FF4EDE184DDAF753F284990D2C6926782963815403548A70C657FDEF80D2D9CEAA2AE4C1C76F60BFE74219A06527D6582DF6412526107381E55E353090704D085B52408D0933C4ED159D79BDA71BB4BC506F4831350EB6F979CD22D69BF7AC49B91A2C0A9DDA3D5CA36AD20FC478E37E6
310
1844E2352865EBCB6EA275A652E3836BE04EFB400BF1A2556F515F1FBB35B2AB35BD889C744FFA1004B5544B121E57F70215746DD2F5E2C1412B602CBF19455AC6C8E5E9922C4E01E65215385004546899059180EAFCF7A707CE7017CD8CDB0410789AB32C63B91E5CEBBBACB17AC6CD347A022D5075FD106377347AAABA7E
310
7D11590744509B44E205134DC1290F06580320F78E537D3D73540E06CB970B431F185308AD40BBD794D6D77003C5A36E8EAA54BA64597CD8F83BD552A080A365F7FF06504B0304140006080000CC70623B000000000000000000000000350000006662782F39464131463745442D413632322D343644302D413938332D3331
310
353338454246344243312F76657274696365732E62696E504B0304140006080800CC70623BF270F1330600000004000000360000006662782F39464131463745442D413632322D343644302D413938332D3331353338454246344243312F747269616E676C65732E62696E636660600000504B0304140006080000CC70623B
310
000000000000000000000000370000006662782F39464131463745442D413632322D343644302D413938332D3331353338454246344243312F617474726962757465732E62696E504B0304140006080800CC70623B08DA0BD19000000041010000360000006662782F39464131463745442D413632322D343644302D413938
310
332D3331353338454246344243312F6469726563746F72792E786D6C858F410AC3201045AF22B36F53E9A60B35CBEEBAE80D244E44489C6234F4F835464A48035D0DF398FF9F8AF63D0E6CC63039F212F8F9020C7D47C6792B21C5FE7403D62A1188E2E60C98D7234A5830286103A55745067B9D86B8A3CF9C7F90C11DE607
310
FB144396D7B6A82D282E9A152AD114D5EF2CB866EEE831B8EEA07A7BB5A8D7D61A2BAAEB7FD5F70921FF497D00504B0304140006080800CC70623B0D6EF93BFE000000A00100003B0000006662782F39464131463745442D413632322D343644302D413938332D3331353338454246344243312F7265736F75726365732F63
310
6F72652E786D6C8D50596E833010BD0A9ADFCA60B334011947A8694ED00B586642AC041B79A97AFC9A40A5F6AF3F33A3B7689E1E3F7DCD8FEC139DD7D6F4C0720A191A65476DA61E62B892236427C19DB5E1970C322367EC618541F0C9D9B8EC90B226A009093576C41D94DE63804C3DD2D18357379C652E63480A7FCF17A9
310
EE72C29CE5894E3AC17D702940B63D59270887DE46A7D0F36263058F518FBB468FE9A7BE6A7420864373B8D4873369AA8691FA421B3294352543C5CAF65C0F6FEF43CB8BD52C78D0F34F46E550061C419494B6843142CB0F5677F4B52BEB177AEC28E5C52AFF638ACBF84F53D42654E51E77B379102C05791282176B5F693D
310
CB4C7BED567C03504B010214000A0000080000CC70623B3DEE336E79000000790000001B00000000000000000000000000000000006175746F6465736B2D64657369676E2D7061636B6167652E786D6C504B01021400140006080800CC70623BD486FD9CA0000000F40000001300000000000000000000000000B20000005B
310
436F6E74656E745F54797065735D2E786D6C504B01021400140006080800CC70623B1EC5D7A3EB0000007C010000080000000000000000000000000083010000636F72652E786D6C504B01021400140006080800CC70623B55019EA25F0000007C000000070000000000000000000000000094020000636E782E786D6C504B
310
01021400140006080800CC70623B8C9102E971010000D40300000C00000000000000000000000000180300006662782F636F72652E786D6C504B01021400140006080800CC70623BFFEA85907E0000009D0000000B00000000000000000000000000B30400006662782F636E782E786D6C504B01021400140006080800CC70
310
623B4FEEA4082C0100001202000031000000000000000000000000005A0500006662782F39464131463745442D413632322D343644302D413938332D3331353338454246344243312F636F72652E786D6C504B01021400140006080800CC70623BAD7543B64E010000330300003000000000000000000000000000D5060000
310
6662782F39464131463745442D413632322D343644302D413938332D3331353338454246344243312F636E782E786D6C504B01021400140006080800CC70623B16AB87BA640500003C1000003400000000000000000000000000710800006662782F39464131463745442D413632322D343644302D413938332D3331353338
310
454246344243312F6F626A656374732E786D6C504B01021400140006080000CC70623B0000000000000000000000003500000000000000000000000000270E00006662782F39464131463745442D413632322D343644302D413938332D3331353338454246344243312F76657274696365732E62696E504B01021400140006
310
080800CC70623BF270F133060000000400000036000000000000000000000000007A0E00006662782F39464131463745442D413632322D343644302D413938332D3331353338454246344243312F747269616E676C65732E62696E504B01021400140006080000CC70623B0000000000000000000000003700000000000000
310
000000000000D40E00006662782F39464131463745442D413632322D343644302D413938332D3331353338454246344243312F617474726962757465732E62696E504B01021400140006080800CC70623B08DA0BD190000000410100003600000000000000000000000000290F00006662782F39464131463745442D413632
310
322D343644302D413938332D3331353338454246344243312F6469726563746F72792E786D6C504B01021400140006080800CC70623B0D6EF93BFE000000A00100003B000000000000000000000000000D1000006662782F39464131463745442D413632322D343644302D413938332D3331353338454246344243312F7265
310
736F75726365732F636F72652E786D6C504B0506000000000E000E0080040000641100000000
  0
XRECORD
  5
175
102
{ACAD_REACTORS
330
173
102
}
330
173
100
AcDbXrecord
280
     1
270
     1
271
     1
  0
XRECORD
  5
174
102
{ACAD_REACTORS
330
173
102
}
330
173
100
AcDbXrecord
280
     1
270
     1
271
     1
  0
XRECORD
  5
1FB
102
{ACAD_REACTORS
330
173
102
}
330
173
100
AcDbXrecord
280
     1
 70
     0
 90
1673772943
  1
ECE7A1D2-D628-4531-984C-D00F80459256
310
504B03040A0000080000CC70623B3DEE336E79000000790000001B0000006175746F6465736B2D64657369676E2D7061636B6167652E786D6C3C3F786D6C2076657273696F6E3D22312E302220656E636F64696E673D227574662D3822203F3E3C666F726D6174733E3C666F726D61743E687474703A2F2F736368656D612E
310
6175746F6465736B2E636F6D2F64657369676E2D7061636B6167652F323030393C2F666F726D61743E3C2F666F726D6174733E504B0304140006080800CC70623BD486FD9CA0000000F4000000130000005B436F6E74656E745F54797065735D2E786D6C7D8EC10E82300C865F65E91D8A1E8C310C0EEA1BF002731658846E
310
D98AC1B77784ABF1D8FE5FBFBF75BBCE937A534CCEB38643598122B6FEE978D0B0485F9C41B54DDD7D022595594E1A469170414C76A4D9A4D207E29CF43ECE46F218070CC6BECC4078ACAA135ACF422C856C0E68EA1BF5669944DDD7BCDE7B1F8E415D77AECB980613C2E4AC91FC167A2B244592486606FC29C8FD7F045B9A
310
EF7053A7E60B504B0304140006080800CC70623BD9DDAED0EC0000007C01000008000000636F72652E786D6C8D90416EC3201045AF82665B61836D9CD8C2444DD39CA01740405C94182C03558F5F9C3852BBEB6A467FFE9B197D7EF89E6EE8CB2CC17A37002D0820E394D7D68D03A478C17B4007C117EFE32F1B20272733C0
310
2A83E0E3E2D3BC49CABB685CCCAAF3DA6CA20CC14440EA969B0182FA34932C648AD911AEC52CD5558EA6A0CF2EC329598D1E47ACCEFBECC59A050463A7EA5833865FEBDD0E37353BE3EE8DBDE3F6786A48D375FBF6CC78B9C282473B3DEFABC5C86834888A900E538A49F5419B9EB47DD5BC907D4F082F57FB1F28CDFA9F50
310
B22ED6D5F6EE030B20687EE43E10BC5CB3C8E51E54AE6B6EE207504B0304140006080800CC70623B55019EA25F0000007C00000007000000636E782E786D6C4DCB3B0E80201045D1AD90E915ED2CF8AC45050C11660C8261F98AB1B07AC9C97D42D718D865D3E909258CFD00CCE24AC6E326A164D74DC0B4128928FF326038
310
472BA13128B1252AC747C6BAB984FC68F0B87FE8960A5C09FE86CFB69FBA01504B0304140006080800CC70623BA24EB22D72010000D40300000C0000006662782F636F72652E786D6CC5535B6E833010BC8AE5DF0A6C5E49888CA3A6694ED00B38E05014B091B1518EDFE511A5A9D228FD2A1F60CDEC7A67C6986DCE4D8D7A
310
69BA4AAB0C073EC548AA5C17952A33ECECD15B61B4E1CC686DBF9561A44423333CC098B3D268D7CE50AE9595CA02AA74216750749DB418E5352C32DCE59FB211BE70162ABA93DF8AFC244AE9073ED050C759670D0840D390E18DF9F1706664C23973AE2A66B62A605A75ACA4C13C4976E1364A12EF355A2EBD384AF65EFA96
310
BC7B8BED2EA6719AAE16FB8491A199335B351775B991C2CA02F390D2D40B028F861F41BCA68B7518BFD0D59A524686F29B26D7164F36B94AD9289CE54E6D1DE6010819891F6E21228B3AD1831EC219194284CF98F06DD01008846CC5A1BEF83801D4CBDC6A1303536877A57A513B0953A94FC707FDBE6064EA84A9E3E6E0FA
310
EE8CF0E9198F7784A316AA0413C2C2F2E0ECA0934D1AE6D05A69BCDE9E91D2A611F573361E38FC1375157F5752AE6B6DFE4B11990F88CCBF0719EE23FF02504B0304140006080800CC70623B408A7D3B7C0000009D0000000B0000006662782F636E782E786D6C4DCCD10A83201886E15B91FFDC552A92A0064DBC8F581632
310
D3703A76F9ABD1C18E3E78F878E5F0D9027ABBFCF2292AE86E2D20171F69F6715550CB827B40839639A5F2770314A7CD293819B45C73AAFB45B35BA61ACAA1C1C7E7855C58C15BC331339661262CC762340413D68D77DA5B42298546CBE6573AF60CEB2F504B0304140006080800CC70623B449FB9BD290100001202000031
310
0000006662782F36394639363044362D344446342D343946362D394244322D3234314243333846323333332F636F72652E786D6C8D515B6EC32010BC0AE22B55850D98B871848994463E412FE002495162B07854397EA176A4F62F3F2C9A9D991D587EB84F37F0AD7D30CEF6905418026DA553C65E7A98E219ED203808EE9D
310
8B7F6810D871D23D2C3014FCE25D9A57483A1BB58D19B54EE9151C43D0110279CB971E06F9A5A7B11A53CC8C70ADE6515EC78BAE4895DB992778883E0700CB907242D17643D7E2538BD869608875438BBAE38922CAC8F1BDD90DB4691A5E2F42C153326A951B95E398B3D1FE599322163C9AE9115F7A3D46ADA0A018778810
310
84E907617BDCEE297BC5BB3DC6BC2EF47FA234AB2745C9D8D8D035EE220B50105E2F0DC1954B9FB747187D9F9D8FA0CCDB042D5FA0C015C65B42DF78BD10F3F3B363CB56C7109DCFDFBBB97E662ED92EB62D13BC2E1BCAE5777DB9966D8A1F504B0304140006080800CC70623BAD7543B64E01000033030000300000006662
310
782F36394639363044362D344446342D343946362D394244322D3234314243333846323333332F636E782E786D6CD593CD6EC32010845F0571AD6CE3D48AD20813A9873E410FBD12D82434182C7EAAE6EDBB2424CD25871E7B41D6EC30B3FA84F9E67BB2E40B4234DE8DB46F1925E094D7C6ED479AD3AE5951B2113C789FEE
310
6C943839C1488B4C05DF079FE72A69D8C96C13AAD6B8631503449F83828872B949AC57D26200B826A308D316B4064D6E46FCDA41C05550DC9E483A00797BFD207EFB092A45DE9514C1BBD22178396BD39D891265658C238DEA00936C654E5E433CB65A26D9F6EDB5EBC14EBF49A45CB856E66048291F6939A9A81BB5C89177
310
38143CA680F4AA299D66A042CEB3354A2684DC9D8D178FE0D9B8B41CAAD720F880EE7EF93C0C18769E099ECC04D5A102C8049A8A05632F4DDF376CF1DE0F6BB65C2F8627B65A33C6BB62177CEBBDAD973006829F89F22E814B54F4BC2BE347F8AA8F681390B50FA73F804400B5F542E796F19FF974E7F78DB802FE05E20750
310
4B0304140006080800CC70623B8D05915C650500003B100000340000006662782F36394639363044362D344446342D343946362D394244322D3234314243333846323333332F6F626A656374732E786D6CAD575B6FA33814FE2B887D06429276DA1565D4266D158D3A339A6846FB502932E050B66023DB74D2FDF5FB190C01
310
9276B2973C046C8ECFF53B17071F77456EBD502133CEAE6CDF9DD81665314F32965ED995DA3A17B6F5310C04E7AA47665B8C14F4CAD6DB7618A48257A5D94AE89654B91AEDDEDDFC61C998326A5B714EA4BCB265FC440BE2924AF184CA6737218AB8E976E7FA6E4338649B0A523E8D98964450A6A029F619B8588D52FE7039
310
B1BD30F0F4F730D0FF866AF6369557DB33949F31A9088B0F848DD8CCFCF9F2767A76E99CCDE733677E3EF59D9BBB9BA5E37F984D16E78BC5E5F5ED25044B25C0C96822E8D60EEFE11B91C581D77CEA34368A1F5329E68CD1B8B61F16D63A1B8E092D294B10C78C4A48EB593D192E7DED9BDEE7995E1B91FDEDD3ACEA9FE831
310
6A756F9F7D4D79F4274C90A7A04248AA51D5F8C718DAE06FB2F75AC4796EBE65D22A88A22223B995679120E2D50E41AA49C260C046A35368846B0BECD0DFF3EBEB8AD4F835768F69B9ADF25C43D30E6B646F807FAA64AD59F61715C7A54127C4AACA98BA3006A9D792DAE165E0D59B61A01FB3A9F9D838D2DAE62445C86166
310
F37564E842E7DE6A69879FEEA2DD5AE7E371E1A5E025154AC307D06A03D73EB5978C58FFA4C8E9033066E0F3BD53BEC1F39F91BE7B55103791EDE6BBB991A2046172CB4581D8B893FA674DDA17A77B3B7C413D1B511FD2743BFF8A38F03A658705E3ADF8015C3A3417FF3D7E439FF591DA0B5F18BC20C1B8981957AE6392A3
310
F43C640C01D1A0B4728E2DD4F26DB4B3C3152A252A3B4E913CEC1C72F012782FF88EFF8637AA552DBEF76408E8A8DE9E50F9E1CB3A2DA0DB1B6039A893B56063DC5B3E3FFB5F72E67AB9FEB4AEC496C4F4C1149625DD662C53E89D7BF0F6151A046260D1337DFDC94502430F83B0EE07A130A224BCAD7DAE1D9FB6CD422FF6
310
920702629C4BB9AE79C12F243C6432A6794E18E5552BA56B431AAB5D91317302B2B071E86C3A42B1A02F999E24061403B5D0EB639195DA655DD3EBEAB4FB862DDF579F014AD0E73C22F99E28DA57FB98E75C6CA2D74D53086D600F4786E0FE3144B771A8A7B900F03594DB8A633CBC49B2EDB69228BB479CF863B5E807AAAB
310
23872F6DFEB4129B949CA33823F58830E86D65621E10047D9DB34D862E8EAC3C2ABC2F7B2C40D67CDFE01F5545B92105AF983AC54D93D69E56FB8E797F88913F898A9FEC705D3F9D1B54EC8426FB500D40A03BD0119B06E1B95DDC7EB8F6975367793EBD70E66733DFB9BC982F9CE564727731999F5D4ECFCE3B8D6A4DC2A0
310
6D50FD148437D110834A64C6CDDF57FBACB5C307A2A477DFE4939736CFEF2B175371E0E10CF0DD1D5C15654E0BCA14D1E87DD02FF93782A162C0A3D95F1524A52770F972BF1EE9809D13CE7DD599467F8ECE9ADD85CE85A34CD45355448C64F9E8A031DC2D596ACC6E5DD93D9B82DE2EF5CAF81363A8E47996A0DE24564A79
310
4115AACE09C55E14540231FDA13C319787134EBF34E3A022514E5B4D9E0826E25C02D5805B15ABE1BEF51B26383D445DD9E875EE33FE4C22DA16427D65A3BCA92CA6D28DD01DF5DC53330704308475351050232CCD31583787BA75774AFB06E5070DD0C8EF484E19968C5D83BA5B90B244D31E54D55A372320FE4786B7EA58
310
44E135AA5467CB7EA333A61683CC6A8C3257034C10CF46F40EF9F5BE59BE5BD30C3C72D235E95D10345C1D45445A5F0BB47E46A5EBE5570F9380B5FA629579952296A773720405982B9DE04011506178964401AA8BDF1FBF0A8EAB6861DD6580C0E38217056766716DAEB2D6FA0917D3E4116581EADB879C4E7CFFB11EFACD
310
3D641311495D92C8676CB409A72D18610D803CE8A626049E8EC1887CB5B44CC39883690DDA8399B4B9855B481E7D71D4A9D22F96E5BB73BF5793020C02137BF837504B0304140006080000CC70623B000000000000000000000000350000006662782F36394639363044362D344446342D343946362D394244322D32343142
310
43333846323333332F76657274696365732E62696E504B0304140006080800CC70623BF270F1330600000004000000360000006662782F36394639363044362D344446342D343946362D394244322D3234314243333846323333332F747269616E676C65732E62696E636660600000504B0304140006080000CC70623B0000
310
00000000000000000000370000006662782F36394639363044362D344446342D343946362D394244322D3234314243333846323333332F617474726962757465732E62696E504B0304140006080800CC70623B08DA0BD19000000041010000360000006662782F36394639363044362D344446342D343946362D394244322D
310
3234314243333846323333332F6469726563746F72792E786D6C858F410AC3201045AF22B36F53E9A60B35CBEEBAE80D244E44489C6234F4F835464A48035D0DF398FF9F8AF63D0E6CC63039F212F8F9020C7D47C6792B21C5FE7403D62A1188E2E60C98D7234A5830286103A55745067B9D86B8A3CF9C7F90C11DE607FB14
310
4396D7B6A82D282E9A152AD114D5EF2CB866EEE831B8EEA07A7BB5A8D7D61A2BAAEB7FD5F70921FF497D00504B0304140006080800CC70623BCA768048FE000000A00100003B0000006662782F36394639363044362D344446342D343946362D394244322D3234314243333846323333332F7265736F75726365732F636F72
310
652E786D6C8D50596E833010BD0A9ADFCA60D600328E9AA639412F609909B1126CE4A5EAF16B0295DABFFECC8CDEA2797AECF8353F924FB44E193D409E5248504B332A3D0D10FC95B4901C39B3C6F85F3248B49871801506CE266BC2B243D2688FDA47549B11775038871E12F988C7004EDE7016A9083E2ADC3D5D84BC8B09
310
D33C8D74D471E6BC8D0192EDC93A815B742658898E651BCB59086ADC356A8C3FD555A1055ED7E7E254D615792D0F075295F585746FF53B694EE78A565DD736979A65AB9933AFE69F8CD2A2F038022F28ED489E135A7CE4554F9BBEA85E68DB53CAB255FEC71496F19FA6A0B42F8B3DEE6673C0F318E4497096AD7DC5F52C33
310
EEB55BFE0D504B010214000A0000080000CC70623B3DEE336E79000000790000001B00000000000000000000000000000000006175746F6465736B2D64657369676E2D7061636B6167652E786D6C504B01021400140006080800CC70623BD486FD9CA0000000F40000001300000000000000000000000000B20000005B436F
310
6E74656E745F54797065735D2E786D6C504B01021400140006080800CC70623BD9DDAED0EC0000007C010000080000000000000000000000000083010000636F72652E786D6C504B01021400140006080800CC70623B55019EA25F0000007C000000070000000000000000000000000095020000636E782E786D6C504B0102
310
1400140006080800CC70623BA24EB22D72010000D40300000C00000000000000000000000000190300006662782F636F72652E786D6C504B01021400140006080800CC70623B408A7D3B7C0000009D0000000B00000000000000000000000000B50400006662782F636E782E786D6C504B01021400140006080800CC70623B
310
449FB9BD290100001202000031000000000000000000000000005A0500006662782F36394639363044362D344446342D343946362D394244322D3234314243333846323333332F636F72652E786D6C504B01021400140006080800CC70623BAD7543B64E010000330300003000000000000000000000000000D20600006662
310
782F36394639363044362D344446342D343946362D394244322D3234314243333846323333332F636E782E786D6C504B01021400140006080800CC70623B8D05915C650500003B10000034000000000000000000000000006E0800006662782F36394639363044362D344446342D343946362D394244322D32343142433338
310
46323333332F6F626A656374732E786D6C504B01021400140006080000CC70623B0000000000000000000000003500000000000000000000000000250E00006662782F36394639363044362D344446342D343946362D394244322D3234314243333846323333332F76657274696365732E62696E504B010214001400060808
310
00CC70623BF270F13306000000040000003600000000000000000000000000780E00006662782F36394639363044362D344446342D343946362D394244322D3234314243333846323333332F747269616E676C65732E62696E504B01021400140006080000CC70623B00000000000000000000000037000000000000000000
310
00000000D20E00006662782F36394639363044362D344446342D343946362D394244322D3234314243333846323333332F617474726962757465732E62696E504B01021400140006080800CC70623B08DA0BD190000000410100003600000000000000000000000000270F00006662782F36394639363044362D344446342D
310
343946362D394244322D3234314243333846323333332F6469726563746F72792E786D6C504B01021400140006080800CC70623BCA768048FE000000A00100003B000000000000000000000000000B1000006662782F36394639363044362D344446342D343946362D394244322D3234314243333846323333332F7265736F
310
75726365732F636F72652E786D6C504B0506000000000E000E0080040000621100000000
  0
XRECORD
  5
176
102
{ACAD_REACTORS
330
173
102
}
330
173
100
AcDbXrecord
280
     1
270
     1
271
     1
  0
XRECORD
  5
177
102
{ACAD_REACTORS
330
173
102
}
330
173
100
AcDbXrecord
280
     1
270
     1
271
     1
  0
CELLSTYLEMAP
  5
9E4
102
{ACAD_REACTORS
330
162
102
}
330
162
100
AcDbCellStyleMap
 90
        3
300
CELLSTYLE
  1
TABLEFORMAT_BEGIN
 90
        5
170
     1
 91
        0
 92
    32768
 62
   257
 93
        1
300
CONTENTFORMAT
  1
CONTENTFORMAT_BEGIN
 90
        0
 91
        0
 92
      512
 93
        0
300

 40
0.0
140
1.0
 94
        5
 62
     0
340
11
144
6.0
309
CONTENTFORMAT_END
171
     1
301
MARGIN
  1
CELLMARGIN_BEGIN
 40
1.5
 40
1.5
 40
1.5
 40
1.5
 40
4.5
 40
4.5
309
CELLMARGIN_END
 94
        6
 95
        1
302
GRIDFORMAT
  1
GRIDFORMAT_BEGIN
 90
        0
 91
        1
 62
     0
 92
       -2
340
14
 93
        0
 40
1.125
309
GRIDFORMAT_END
 95
        2
302
GRIDFORMAT
  1
GRIDFORMAT_BEGIN
 90
        0
 91
        1
 62
     0
 92
       -2
340
14
 93
        0
 40
1.125
309
GRIDFORMAT_END
 95
        4
302
GRIDFORMAT
  1
GRIDFORMAT_BEGIN
 90
        0
 91
        1
 62
     0
 92
       -2
340
14
 93
        0
 40
1.125
309
GRIDFORMAT_END
 95
        8
302
GRIDFORMAT
  1
GRIDFORMAT_BEGIN
 90
        0
 91
        1
 62
     0
 92
       -2
340
14
 93
        0
 40
1.125
309
GRIDFORMAT_END
 95
       16
302
GRIDFORMAT
  1
GRIDFORMAT_BEGIN
 90
        0
 91
        1
 62
     0
 92
       -2
340
14
 93
        0
 40
1.125
309
GRIDFORMAT_END
 95
       32
302
GRIDFORMAT
  1
GRIDFORMAT_BEGIN
 90
        0
 91
        1
 62
     0
 92
       -2
340
14
 93
        0
 40
1.125
309
GRIDFORMAT_END
309
TABLEFORMAT_END
  1
CELLSTYLE_BEGIN
 90
        1
 91
        1
300
_TITLE
309
CELLSTYLE_END
300
CELLSTYLE
  1
TABLEFORMAT_BEGIN
 90
        5
170
     1
 91
        0
 92
        0
 62
   257
 93
        1
300
CONTENTFORMAT
  1
CONTENTFORMAT_BEGIN
 90
        0
 91
        0
 92
      512
 93
        0
300

 40
0.0
140
1.0
 94
        5
 62
     0
340
11
144
4.5
309
CONTENTFORMAT_END
171
     1
301
MARGIN
  1
CELLMARGIN_BEGIN
 40
1.5
 40
1.5
 40
1.5
 40
1.5
 40
4.5
 40
4.5
309
CELLMARGIN_END
 94
        6
 95
        1
302
GRIDFORMAT
  1
GRIDFORMAT_BEGIN
 90
        0
 91
        1
 62
     0
 92
       -2
340
14
 93
        0
 40
1.125
309
GRIDFORMAT_END
 95
        2
302
GRIDFORMAT
  1
GRIDFORMAT_BEGIN
 90
        0
 91
        1
 62
     0
 92
       -2
340
14
 93
        0
 40
1.125
309
GRIDFORMAT_END
 95
        4
302
GRIDFORMAT
  1
GRIDFORMAT_BEGIN
 90
        0
 91
        1
 62
     0
 92
       -2
340
14
 93
        0
 40
1.125
309
GRIDFORMAT_END
 95
        8
302
GRIDFORMAT
  1
GRIDFORMAT_BEGIN
 90
        0
 91
        1
 62
     0
 92
       -2
340
14
 93
        0
 40
1.125
309
GRIDFORMAT_END
 95
       16
302
GRIDFORMAT
  1
GRIDFORMAT_BEGIN
 90
        0
 91
        1
 62
     0
 92
       -2
340
14
 93
        0
 40
1.125
309
GRIDFORMAT_END
 95
       32
302
GRIDFORMAT
  1
GRIDFORMAT_BEGIN
 90
        0
 91
        1
 62
     0
 92
       -2
340
14
 93
        0
 40
1.125
309
GRIDFORMAT_END
309
TABLEFORMAT_END
  1
CELLSTYLE_BEGIN
 90
        2
 91
        1
300
_HEADER
309
CELLSTYLE_END
300
CELLSTYLE
  1
TABLEFORMAT_BEGIN
 90
        5
170
     1
 91
        0
 92
        0
 62
   257
 93
        1
300
CONTENTFORMAT
  1
CONTENTFORMAT_BEGIN
 90
        0
 91
        0
 92
      512
 93
        0
300

 40
0.0
140
1.0
 94
        2
 62
     0
340
11
144
4.5
309
CONTENTFORMAT_END
171
     1
301
MARGIN
  1
CELLMARGIN_BEGIN
 40
1.5
 40
1.5
 40
1.5
 40
1.5
 40
4.5
 40
4.5
309
CELLMARGIN_END
 94
        6
 95
        1
302
GRIDFORMAT
  1
GRIDFORMAT_BEGIN
 90
        0
 91
        1
 62
     0
 92
       -2
340
14
 93
        0
 40
1.125
309
GRIDFORMAT_END
 95
        2
302
GRIDFORMAT
  1
GRIDFORMAT_BEGIN
 90
        0
 91
        1
 62
     0
 92
       -2
340
14
 93
        0
 40
1.125
309
GRIDFORMAT_END
 95
        4
302
GRIDFORMAT
  1
GRIDFORMAT_BEGIN
 90
        0
 91
        1
 62
     0
 92
       -2
340
14
 93
        0
 40
1.125
309
GRIDFORMAT_END
 95
        8
302
GRIDFORMAT
  1
GRIDFORMAT_BEGIN
 90
        0
 91
        1
 62
     0
 92
       -2
340
14
 93
        0
 40
1.125
309
GRIDFORMAT_END
 95
       16
302
GRIDFORMAT
  1
GRIDFORMAT_BEGIN
 90
        0
 91
        1
 62
     0
 92
       -2
340
14
 93
        0
 40
1.125
309
GRIDFORMAT_END
 95
       32
302
GRIDFORMAT
  1
GRIDFORMAT_BEGIN
 90
        0
 91
        1
 62
     0
 92
       -2
340
14
 93
        0
 40
1.125
309
GRIDFORMAT_END
309
TABLEFORMAT_END
  1
CELLSTYLE_BEGIN
 90
        3
 91
        2
300
_DATA
309
CELLSTYLE_END
  0
AcDbCenterMarkActionBody
  5
843
330
842
100
AcDbAssocActionBody
 90
        2
100
AcDbSmartCenterActionBody
 90
        0
  0
ACDBASSOCGEOMDEPENDENCY
  5
844
330
842
100
AcDbAssocDependency
 90
        2
 90
        0
290
     1
290
     0
290
     1
290
     1
 90
        0
330
826
290
     0
330
0
330
0
360
0
 90
        1
100
AcDbAssocGeomDependency
 90
        0
290
     1
  1
AcDbAssocSingleEdgePersSubentId
290
     0
  0
ACDBASSOCDEPENDENCY
  5
845
330
842
100
AcDbAssocDependency
 90
        2
 90
        0
290
     1
290
     1
290
     1
290
     1
 90
        0
330
839
290
     0
330
0
330
0
360
0
 90
        2
  0
ACDBASSOCEDGEACTIONPARAM
  5
846
330
842
100
AcDbAssocActionParam
 90
        1
 90
        0
  1
InputEdge
100
AcDbAssocSingleDependencyActionParam
 90
        0
330
844
100
AcDbAssocEdgeActionParam
 90
        0
330
0
290
     1
 90
       11
 10
162.5703944300767
 20
126.2429149591189
 30
0.0
 10
0.0
 20
0.0
 30
1.0
 10
1.0
 20
0.0
 30
0.0
 40
37.5
 40
0.0
 40
3.141592653589793
 40
0.0
  0
AcDbCenterLineActionBody
  5
848
330
847
100
AcDbAssocActionBody
 90
        2
100
AcDbSmartCenterActionBody
 90
        0
  0
ACDBASSOCGEOMDEPENDENCY
  5
849
330
847
100
AcDbAssocDependency
 90
        2
 90
        0
290
     1
290
     0
290
     1
290
     1
 90
        0
330
829
290
     0
330
0
330
0
360
0
 90
        1
100
AcDbAssocGeomDependency
 90
        0
290
     1
  1
AcDbAssocSingleEdgePersSubentId
290
     0
  0
ACDBASSOCGEOMDEPENDENCY
  5
84A
330
847
100
AcDbAssocDependency
 90
        2
 90
        0
290
     1
290
     0
290
     1
290
     1
 90
        0
330
82A
290
     0
330
0
330
0
360
0
 90
        2
100
AcDbAssocGeomDependency
 90
        0
290
     1
  1
AcDbAssocSingleEdgePersSubentId
290
     0
  0
ACDBASSOCDEPENDENCY
  5
84B
330
847
100
AcDbAssocDependency
 90
        2
 90
        0
290
     1
290
     1
290
     1
290
     1
 90
        0
330
83A
290
     0
330
0
330
0
360
0
 90
        3
  0
ACDBASSOCEDGEACTIONPARAM
  5
84C
330
847
100
AcDbAssocActionParam
 90
        1
 90
        0
  1
InputEdge
100
AcDbAssocSingleDependencyActionParam
 90
        0
330
849
100
AcDbAssocEdgeActionParam
 90
        0
330
0
290
     1
 90
       23
 10
248.2238399745767
 20
88.74291495911894
 30
0.0
 10
1.800000000000011
 20
0.0
 30
0.0
  0
ACDBASSOCEDGEACTIONPARAM
  5
84D
330
847
100
AcDbAssocActionParam
 90
        1
 90
        0
  1
InputEdge
100
AcDbAssocSingleDependencyActionParam
 90
        0
330
84A
100
AcDbAssocEdgeActionParam
 90
        0
330
0
290
     1
 90
       23
 10
250.0238399745767
 20
163.7429149591189
 30
0.0
 10
-1.800000000000011
 20
0.0
 30
0.0
  0
ENDSEC
  0
SECTION
  2
ACDSDATA
 70
     2
 71
     8
  0
ACDSSCHEMA
 90
        0
  1
AcDb_Thumbnail_Schema
  2
AcDbDs::ID
280
    10
 91
        8
  2
Thumbnail_Data
280
    15
 91
        0
101
ACDSRECORD
 95
        0
 90
        1
  2
AcDbDs::TreatedAsObjectData
280
     1
291
     1
101
ACDSRECORD
 95
        0
 90
        2
  2
AcDbDs::Legacy
280
     1
291
     1
101
ACDSRECORD
  1
AcDbDs::ID
 90
        3
  2
AcDs:Indexable
280
     1
291
     1
101
ACDSRECORD
  1
AcDbDs::ID
 90
        4
  2
AcDbDs::HandleAttribute
280
     7
282
     1
  0
ACDSSCHEMA
 90
        1
  1
AcDbDs::TreatedAsObjectDataSchema
  2
AcDbDs::TreatedAsObjectData
280
     1
 91
        0
  0
ACDSSCHEMA
 90
        2
  1
AcDbDs::LegacySchema
  2
AcDbDs::Legacy
280
     1
 91
        0
  0
ACDSSCHEMA
 90
        3
  1
AcDbDs::IndexedPropertySchema
  2
AcDs:Indexable
280
     1
 91
        0
  0
ACDSSCHEMA
 90
        4
  1
AcDbDs::HandleAttributeSchema
  2
AcDbDs::HandleAttribute
280
     7
 91
        1
284
     1
  0
ACDSRECORD
 90
        0
  2
AcDbDs::ID
280
    10
320
22
  2
Thumbnail_Data
280
    15
 94
     2559
310
89504E470D0A1A0A0000000D4948445200000100000000680803000000297CDED700000300504C5445212830FFFFFF2128300000000000000000000000000000000000000000000000000000330000660000990000CC0000FF0033000033330033660033990033CC0033FF0066000066330066660066990066CC0066FF0099
310
000099330099660099990099CC0099FF00CC0000CC3300CC6600CC9900CCCC00CCFF00FF0000FF3300FF6600FF9900FFCC00FFFF3300003300333300663300993300CC3300FF3333003333333333663333993333CC3333FF3366003366333366663366993366CC3366FF3399003399333399663399993399CC3399FF33CC00
310
33CC3333CC6633CC9933CCCC33CCFF33FF0033FF3333FF6633FF9933FFCC33FFFF6600006600336600666600996600CC6600FF6633006633336633666633996633CC6633FF6666006666336666666666996666CC6666FF6699006699336699666699996699CC6699FF66CC0066CC3366CC6666CC9966CCCC66CCFF66FF0066
310
FF3366FF6666FF9966FFCC66FFFF9900009900339900669900999900CC9900FF9933009933339933669933999933CC9933FF9966009966339966669966999966CC9966FF9999009999339999669999999999CC9999FF99CC0099CC3399CC6699CC9999CCCC99CCFF99FF0099FF3399FF6699FF9999FFCC99FFFFCC0000CC00
310
33CC0066CC0099CC00CCCC00FFCC3300CC3333CC3366CC3399CC33CCCC33FFCC6600CC6633CC6666CC6699CC66CCCC66FFCC9900CC9933CC9966CC9999CC99CCCC99FFCCCC00CCCC33CCCC66CCCC99CCCCCCCCCCFFCCFF00CCFF33CCFF66CCFF99CCFFCCCCFFFFFF0000FF0033FF0066FF0099FF00CCFF00FFFF3300FF3333
310
FF3366FF3399FF33CCFF33FFFF6600FF6633FF6666FF6699FF66CCFF66FFFF9900FF9933FF9966FF9999FF99CCFF99FFFFCC00FFCC33FFCC66FFCC99FFCCCCFFCCFFFFFF00FFFF33FFFF66FFFF99FFFFCCFFFFFF0000000D0D0D1A1A1A2828283535354343435050505D5D5D6B6B6B787878868686939393A1A1A1AEAEAEBB
310
BBBBC9C9C9D6D6D6E4E4E4F1F1F1FFFFFF0000000000000000000000000000000000000000000000000000000000002E4550F1000000FB4944415478DAEDDA316EC4201005501F8766EEDF712BFA783789456C171B69A528FCF70A6B45C7678C07B1DB06000000000000FC8DF13B0B06F08EE1FF1D407C058CD7973A28804D
310
0002480FA03F1ED55A4D334F0A60F47DBC4E4BBF6A00ADDDD47ADF1F2901DC7E04F757A0464C053C5C02A8239BFA2A86A503387741BDA67EA86AFD008E32E8B32380B83DA0FADC11E76D82F5EC035236C1ABDA7202B89BD4BEFF8F3E4FF7F367CC71F8B9E5F5713D04E49D05B6D0AFC04FFB8168F13EC0715800D9019CFB5E
310
152080AC00EA6A6A13032E465E08E0FBB0AC02E20268D3F2B7A0005C8FDF0E8F35AFC7D3FF200100000000000000000000EFF0014F479ABA4BCDB1240000000049454E44AE4260820598A51730E8F8730AA0062000010840C078FB24DCEF04F52B63016166C02F04B441E9985980D3DFABD3F1930247B9A8D23FFD92270564
310
0BB6719EA6D6B9059002DF70837D15BD38029EBA0B01730AC8FEA7290000000000000000000000000000000000803FE7071654C877F23086FB0000000049454E44AE4260820004702FC0A6128000DC02B89F037421240001084000021080000420000108E0EB83B6CB01C081AD53F5001E00F4ABBD43C0288640EBB4D1A379
310
23807103ACDEDDF8D8BC7312B4017AC099007633C03D7300D12478F11C40B70C2E4E3B7B4F0BCB2D95E6C7F139806615B804E0D6BF39C31C50FAFDD8BFF11C700E58646502C8CF01AB2D5B9BF703DC3B046E00D01C400570DFBD00D9325898883E2D8356696E1F7475A0B81A7A02187B0E88C78BE8E914FBEE052000010840
310
0007CF90B04CA552B9AE1FE40A9F1791406BA60000000049454E44AE4260820049454E44AE4260820DE06FA7DD8C0000000049454E44AE426082A80FDF7F5A67AAA8B9950000000049454E44AE426082DCE280DBAA40AD56A074F8CA03D86D09C7B55F953A16EF69E6BE3FE70039FED4D2D8BD552078EB12AA5B05681D29B8
310
87ABC06694B6006CA93876C07120F14415E09FC4B91B806CD229F02DFEEA1DA14A49F00FEC0B608C789D18010000000049454E44AE42608273D9B8E2DC16B0EA7AD3B2C61B6CB5D6667D57DDFED1D55B5CEEBD64DF00000040E7006E238410420821841042082189FC036F8AF1127E2CE0FB0000000049454E44AE4260824E
310
44AE426082AB11F350E9FE60DBE13339E8DBE1DEA33FEEFD7E5C6A70FBEC155305F1FE2C333500F46E5C0E986171B801B83B02840140270D402381610EB02800BC3FC6E62E0378FD2025F100D08D03D0E0F4F56DBF84CFD400B8505401187D0FC1D69802C5016820D003A03C1BB01E0074230174DBF83EC17623802556093D
310
03608202D80820F402FF08C05F14C046023D0036E71E4F82A300C4618044002C023D00362707401A07FAE76AC0A3D3223D0016BA67423D80EAB9E699102F52BF01A89C2D990AF332F557CEB70380ACDBE63400B83A633A19ECA5EA3700E573DEFD1AE0C5EA2F9F753B80559FA2B1D5F5B300ACFB14916D0800694F5119BE28
310
683102BAF47F397FD4A5FFA4409DFEE323E18E003CFFAB3210340090F450C9AD18015EB4F79FAF261B80D0C7AA9E53A057223FA8E20190299FAD4CAEFC5704709E2D2E583F56AEB068F52E3F37BFF6FF0B48D74FDC7DD3A1BC00803B1F2047BF01500D000DC0D7A900AFDC0174E500DD000A73610640B97E03E095EB37005E
310
B97E03A0A8236400CCCC06DA3F7932F2B0D7FCEF6E0000000049454E44AE426082522C003C8158382CD81700BE1885A738737E41F121AA25D181628152D43452E8E849DC22E86102BF2EF051EE9B6C270C5407B500442E90794EA3E1591FC01797958E8D7705C0963FB4674CAA47E6669DFCF30BC4C10600DE0A709D79E1DA
310
A6FF38A3B2F706E003C6B1B6E95F1C066D0E78FCFF83438509119C5D22B651C01C293998DC07811A000492AB7D18EFC8818E699D49AAA981061B001103835C090035F5C1EB87140088BD208522205B409601285E58E937D726FD2B2C80EECFE3DFF3166009009405A8534876EC42340DEC640219000E2F96CC5B801A832100
310
E81CB1E6C091F88A1CF800281F507B726E6DD1FF9D2860CF08642910FA338016043E02400D03F20BC035C91095822600E21001AE054E00C42102DE0150D5708F3748780740B74386BB5374F50EC06B044607E01502A62138E2B5BAAB7700FE44C07684C7BC5879F50EC01F082CE24356E7FA1F22E007803C028EF4CF23E00A
310
80DCDDE229000F574690318087AB6DE00F00BD0D721E60FC2F5B5BBD034046E01480004136063AF9BEC12704BE48400A81F7AF5C90C53904CB927EDBA22F00E25E58FD39C15F036087B01A00D6E1F55F52AFA8BE74F61FF45B88C6C76FF2AB0000000049454E44AE426082D906A028044C002600B6ED9F00ACC6ED77EB3FC5
310
D78DE4B0CC55C20000000049454E44AE426082
  0
ENDSEC
  0
EOF
