  0
SECTION
  2
HEADER
  9
$ACADVER
  1
AC1014
  9
$ACADMAINTVER
 70
     9
  9
$DWGCODEPAGE
  3
ANSI_936
  9
$INSBASE
 10
0.0
 20
0.0
 30
0.0
  9
$EXTMIN
 10
-0.113097743698745
 20
-0.0461246509516968
 30
-0.0015258207003583
  9
$EXTMAX
 10
297.0738930786174
 20
210.0676890857721
 30
0.0000000349246037
  9
$LIMMIN
 10
0.0
 20
0.0
  9
$LIMMAX
 10
420.0
 20
297.0
  9
$ORTHOMODE
 70
     0
  9
$REGENMODE
 70
     1
  9
$FILLMODE
 70
     1
  9
$QTEXTMODE
 70
     0
  9
$MIRRTEXT
 70
     0
  9
$DRAGMODE
 70
     2
  9
$LTSCALE
 40
1.0
  9
$OSMODE
 70
    37
  9
$ATTMODE
 70
     1
  9
$TEXTSIZE
 40
2.5
  9
$TRACEWID
 40
1.0
  9
$TEXTSTYLE
  7
STANDARD
  9
$CLAYER
  8
0
  9
$CELTYPE
  6
BYLAYER
  9
$CECOLOR
 62
   256
  9
$CELTSCALE
 40
1.0
  9
$DELOBJ
 70
     1
  9
$DISPSILH
 70
     0
  9
$DIMSCALE
 40
1.0
  9
$DIMASZ
 40
2.5
  9
$DIMEXO
 40
0.625
  9
$DIMDLI
 40
3.75
  9
$DIMRND
 40
0.0
  9
$DIMDLE
 40
0.0
  9
$DIMEXE
 40
1.25
  9
$DIMTP
 40
0.0
  9
$DIMTM
 40
0.0
  9
$DIMTXT
 40
2.5
  9
$DIMCEN
 40
2.5
  9
$DIMTSZ
 40
0.0
  9
$DIMTOL
 70
     0
  9
$DIMLIM
 70
     0
  9
$DIMTIH
 70
     0
  9
$DIMTOH
 70
     0
  9
$DIMSE1
 70
     0
  9
$DIMSE2
 70
     0
  9
$DIMTAD
 70
     1
  9
$DIMZIN
 70
     8
  9
$DIMBLK
  1

  9
$DIMASO
 70
     1
  9
$DIMSHO
 70
     1
  9
$DIMPOST
  1

  9
$DIMAPOST
  1

  9
$DIMALT
 70
     0
  9
$DIMALTD
 70
     3
  9
$DIMALTF
 40
0.03937007874016
  9
$DIMLFAC
 40
1.0
  9
$DIMTOFL
 70
     1
  9
$DIMTVP
 40
0.0
  9
$DIMTIX
 70
     0
  9
$DIMSOXD
 70
     0
  9
$DIMSAH
 70
     0
  9
$DIMBLK1
  1

  9
$DIMBLK2
  1

  9
$DIMSTYLE
  2
ISO-25
  9
$DIMCLRD
 70
     0
  9
$DIMCLRE
 70
     0
  9
$DIMCLRT
 70
     0
  9
$DIMTFAC
 40
1.0
  9
$DIMGAP
 40
0.625
  9
$DIMJUST
 70
     0
  9
$DIMSD1
 70
     0
  9
$DIMSD2
 70
     0
  9
$DIMTOLJ
 70
     0
  9
$DIMTZIN
 70
     8
  9
$DIMALTZ
 70
     0
  9
$DIMALTTZ
 70
     0
  9
$DIMFIT
 70
     3
  9
$DIMUPT
 70
     0
  9
$DIMUNIT
 70
     2
  9
$DIMDEC
 70
     2
  9
$DIMTDEC
 70
     2
  9
$DIMALTU
 70
     2
  9
$DIMALTTD
 70
     3
  9
$DIMTXSTY
  7
STANDARD
  9
$DIMAUNIT
 70
     0
  9
$LUNITS
 70
     2
  9
$LUPREC
 70
     4
  9
$SKETCHINC
 40
1.0
  9
$FILLETRAD
 40
0.0
  9
$AUNITS
 70
     0
  9
$AUPREC
 70
     0
  9
$MENU
  1
.
  9
$ELEVATION
 40
0.0
  9
$PELEVATION
 40
0.0
  9
$THICKNESS
 40
0.0
  9
$LIMCHECK
 70
     0
  9
$CHAMFERA
 40
0.0
  9
$CHAMFERB
 40
0.0
  9
$CHAMFERC
 40
0.0
  9
$CHAMFERD
 40
0.0
  9
$SKPOLY
 70
     0
  9
$TDCREATE
 40
2460229.481388889
  9
$TDUPDATE
 40
2460669.462428785
  9
$TDINDWG
 40
0.1939467593
  9
$TDUSRTIMER
 40
0.1939467593
  9
$USRTIMER
 70
     1
  9
$ANGBASE
 50
0.0
  9
$ANGDIR
 70
     0
  9
$PDMODE
 70
     0
  9
$PDSIZE
 40
0.0
  9
$PLINEWID
 40
0.0
  9
$COORDS
 70
     1
  9
$SPLFRAME
 70
     0
  9
$SPLINETYPE
 70
     6
  9
$SPLINESEGS
 70
     8
  9
$ATTDIA
 70
     0
  9
$ATTREQ
 70
     1
  9
$HANDLING
 70
     1
  9
$HANDSEED
  5
F30
  9
$SURFTAB1
 70
     6
  9
$SURFTAB2
 70
     6
  9
$SURFTYPE
 70
     6
  9
$SURFU
 70
     6
  9
$SURFV
 70
     6
  9
$UCSNAME
  2

  9
$UCSORG
 10
0.0
 20
0.0
 30
0.0
  9
$UCSXDIR
 10
1.0
 20
0.0
 30
0.0
  9
$UCSYDIR
 10
0.0
 20
1.0
 30
0.0
  9
$PUCSNAME
  2

  9
$PUCSORG
 10
0.0
 20
0.0
 30
0.0
  9
$PUCSXDIR
 10
1.0
 20
0.0
 30
0.0
  9
$PUCSYDIR
 10
0.0
 20
1.0
 30
0.0
  9
$USERI1
 70
     0
  9
$USERI2
 70
     0
  9
$USERI3
 70
     0
  9
$USERI4
 70
     0
  9
$USERI5
 70
     0
  9
$USERR1
 40
0.0
  9
$USERR2
 40
0.0
  9
$USERR3
 40
0.0
  9
$USERR4
 40
0.0
  9
$USERR5
 40
0.0
  9
$WORLDVIEW
 70
     1
  9
$SHADEDGE
 70
     3
  9
$SHADEDIF
 70
    70
  9
$TILEMODE
 70
     1
  9
$MAXACTVP
 70
    64
  9
$PINSBASE
 10
0.0
 20
0.0
 30
0.0
  9
$PLIMCHECK
 70
     0
  9
$PEXTMIN
 10
0.0
 20
0.0
 30
0.0
  9
$PEXTMAX
 10
0.0
 20
0.0
 30
0.0
  9
$PLIMMIN
 10
0.0
 20
0.0
  9
$PLIMMAX
 10
12.0
 20
9.0
  9
$UNITMODE
 70
     0
  9
$VISRETAIN
 70
     1
  9
$PLINEGEN
 70
     0
  9
$PSLTSCALE
 70
     1
  9
$TREEDEPTH
 70
  3020
  9
$PICKSTYLE
 70
     1
  9
$CMLSTYLE
  2
STANDARD
  9
$CMLJUST
 70
     0
  9
$CMLSCALE
 40
20.0
  9
$PROXYGRAPHICS
 70
     1
  9
$MEASUREMENT
 70
     1
  0
ENDSEC
  0
SECTION
  2
CLASSES
  0
CLASS
  1
ACDBDICTIONARYWDFLT
  2
AcDbDictionaryWithDefault
  3
ObjectDBX Classes
 90
        0
280
     0
281
     0
  0
CLASS
  1
ACDBPLACEHOLDER
  2
AcDbPlaceHolder
  3
ObjectDBX Classes
 90
        0
280
     0
281
     0
  0
CLASS
  1
LAYOUT
  2
AcDbLayout
  3
ObjectDBX Classes
 90
        0
280
     0
281
     0
  0
CLASS
  1
DICTIONARYVAR
  2
AcDbDictionaryVar
  3
ObjectDBX Classes
 90
        0
280
     0
281
     0
  0
CLASS
  1
TABLESTYLE
  2
AcDbTableStyle
  3
ObjectDBX Classes
 90
     4095
280
     0
281
     0
  0
CLASS
  1
MATERIAL
  2
AcDbMaterial
  3
ObjectDBX Classes
 90
     1153
280
     0
281
     0
  0
CLASS
  1
VISUALSTYLE
  2
AcDbVisualStyle
  3
ObjectDBX Classes
 90
     4095
280
     0
281
     0
  0
CLASS
  1
SCALE
  2
AcDbScale
  3
ObjectDBX Classes
 90
     1153
280
     0
281
     0
  0
CLASS
  1
MLEADERSTYLE
  2
AcDbMLeaderStyle
  3
ACDB_MLEADERSTYLE_CLASS
 90
     4095
280
     0
281
     0
  0
CLASS
  1
CELLSTYLEMAP
  2
AcDbCellStyleMap
  3
ObjectDBX Classes
 90
     1152
280
     0
281
     0
  0
CLASS
  1
EXACXREFPANELOBJECT
  2
ExAcXREFPanelObject
  3
EXAC_ESW
 90
     1025
280
     1
281
     0
  0
CLASS
  1
NPOCOLLECTION
  2
AcDbImpNonPersistentObjectsCollection
  3
ObjectDBX Classes
 90
     1153
280
     1
281
     0
  0
CLASS
  1
LAYER_INDEX
  2
AcDbLayerIndex
  3
ObjectDBX Classes
 90
        0
280
     0
281
     0
  0
CLASS
  1
SPATIAL_INDEX
  2
AcDbSpatialIndex
  3
AutoCAD 2000
 90
        0
280
     0
281
     0
  0
CLASS
  1
IDBUFFER
  2
AcDbIdBuffer
  3
ObjectDBX Classes
 90
        0
280
     0
281
     0
  0
CLASS
  1
ACDBSECTIONVIEWSTYLE
  2
AcDbSectionViewStyle
  3
ObjectDBX Classes
 90
     1025
280
     0
281
     0
  0
CLASS
  1
ACDBDETAILVIEWSTYLE
  2
AcDbDetailViewStyle
  3
ObjectDBX Classes
 90
     1025
280
     0
281
     0
  0
CLASS
  1
SORTENTSTABLE
  2
AcDbSortentsTable
  3
ObjectDBX Classes
 90
        0
280
     0
281
     0
  0
CLASS
  1
ACDBASSOC2DCONSTRAINTGROUP
  2
AcDbAssoc2dConstraintGroup
  3
ObjectDBX Classes
 90
     1025
280
     1
281
     0
  0
CLASS
  1
ACDBASSOCVALUEDEPENDENCY
  2
AcDbAssocValueDependency
  3
ObjectDBX Classes
 90
     1025
280
     1
281
     0
  0
CLASS
  1
ACDBASSOCGEOMDEPENDENCY
  2
AcDbAssocGeomDependency
  3
ObjectDBX Classes
 90
     1025
280
     1
281
     0
  0
CLASS
  1
ACDBASSOCDEPENDENCY
  2
AcDbAssocDependency
  3
ObjectDBX Classes
 90
     1025
280
     1
281
     0
  0
CLASS
  1
ASSOCDIMDEPENDENCYBODY
  2
AcDbAssocDimDependencyBody
  3
ObjectDBX Classes
 90
     1025
280
     1
281
     0
  0
CLASS
  1
ACDBASSOCVARIABLE
  2
AcDbAssocVariable
  3
ObjectDBX Classes
 90
     1025
280
     1
281
     0
  0
CLASS
  1
ACDBASSOCNETWORK
  2
AcDbAssocNetwork
  3
ObjectDBX Classes
 90
     1025
280
     1
281
     0
  0
CLASS
  1
RAPIDRTRENDERSETTINGS
  2
AcDbRapidRTRenderSettings
  3
ObjectDBX Classes
 90
     1024
280
     0
281
     0
  0
CLASS
  1
ACAD_TABLE
  2
AcDbTable
  3
ObjectDBX Classes
 90
     1025
280
     0
281
     1
  0
CLASS
  1
TABLECONTENT
  2
AcDbTableContent
  3
ObjectDBX Classes
 90
     1152
280
     0
281
     0
  0
CLASS
  1
TABLEGEOMETRY
  2
AcDbTableGeometry
  3
ObjectDBX Classes
 90
     1152
280
     0
281
     0
  0
CLASS
  1
ACAD_PROXY_OBJECT_WRAPPER
  2
AcDbProxyObjectWrapper
  3
AutoCAD 2000
 90
        0
280
     0
281
     0
  0
CLASS
  1
XRECORD
  2
AcDbXrecord
  3
ObjectDBX Classes
 90
        0
280
     0
281
     0
  0
CLASS
  1
LWPOLYLINE
  2
AcDbPolyline
  3
ObjectDBX Classes
 90
        0
280
     0
281
     1
  0
CLASS
  1
HATCH
  2
AcDbHatch
  3
ObjectDBX Classes
 90
        0
280
     0
281
     1
  0
ENDSEC
  0
SECTION
  2
TABLES
  0
TABLE
  2
VPORT
  5
8
102
{ACAD_XDICTIONARY
360
F29
102
}
330
0
100
AcDbSymbolTable
 70
     1
  0
VPORT
  5
EA
330
8
100
AcDbSymbolTableRecord
100
AcDbViewportTableRecord
  2
*ACTIVE
 70
     0
 10
0.0
 20
0.0
 11
1.0
 21
1.0
 12
148.4803976674594
 22
105.0107822174102
 13
0.0
 23
0.0
 14
10.0
 24
10.0
 15
10.0
 25
10.0
 16
0.0
 26
0.0
 36
1.0
 17
0.0
 27
0.0
 37
0.0
 40
211.7197791920364
 41
2.100765306122449
 42
50.0
 43
0.0
 44
0.0
 50
0.0
 51
0.0
 71
     0
 72
  1000
 73
     1
 74
     3
 75
     0
 76
     1
 77
     0
 78
     0
1001
ACAD_NAV_VCDISPLAY
1070
     3
  0
ENDTAB
  0
TABLE
  2
LTYPE
  5
5
330
0
100
AcDbSymbolTable
 70
     2
  0
LTYPE
  5
14
330
5
100
AcDbSymbolTableRecord
100
AcDbLinetypeTableRecord
  2
BYBLOCK
 70
     0
  3

 72
    65
 73
     0
 40
0.0
  0
LTYPE
  5
15
330
5
100
AcDbSymbolTableRecord
100
AcDbLinetypeTableRecord
  2
BYLAYER
 70
     0
  3

 72
    65
 73
     0
 40
0.0
  0
LTYPE
  5
16
330
5
100
AcDbSymbolTableRecord
100
AcDbLinetypeTableRecord
  2
CONTINUOUS
 70
     0
  3
Solid line
 72
    65
 73
     0
 40
0.0
  0
LTYPE
  5
2D3
330
5
100
AcDbSymbolTableRecord
100
AcDbLinetypeTableRecord
  2
CENTER
 70
     0
  3
Center ____ _ ____ _ ____ _ ____ _ ____ _ ____
 72
    65
 73
     4
 40
10.16
 49
6.35
 74
     0
 49
-1.27
 74
     0
 49
1.27
 74
     0
 49
-1.27
 74
     0
  0
ENDTAB
  0
TABLE
  2
LAYER
  5
2
102
{ACAD_XDICTIONARY
360
1FF
102
}
330
0
100
AcDbSymbolTable
 70
    10
  0
LAYER
  5
10
330
2
100
AcDbSymbolTableRecord
100
AcDbLayerTableRecord
  2
0
 70
     0
 62
     7
  6
CONTINUOUS
  0
LAYER
  5
2D4
330
2
100
AcDbSymbolTableRecord
100
AcDbLayerTableRecord
  2
粗实线层
 70
     0
 62
     7
  6
CONTINUOUS
  0
LAYER
  5
2D6
330
2
100
AcDbSymbolTableRecord
100
AcDbLayerTableRecord
  2
细实线层
 70
     0
 62
     7
  6
CONTINUOUS
  0
LAYER
  5
2D8
330
2
100
AcDbSymbolTableRecord
100
AcDbLayerTableRecord
  2
DEFPOINTS
 70
     0
 62
     7
  6
CONTINUOUS
  0
LAYER
  5
2D9
330
2
100
AcDbSymbolTableRecord
100
AcDbLayerTableRecord
  2
1轮廓实线层
 70
     0
 62
     7
  6
CONTINUOUS
  0
LAYER
  5
2DB
330
2
100
AcDbSymbolTableRecord
100
AcDbLayerTableRecord
  2
3中心线层
 70
     0
 62
     1
  6
CENTER
  0
LAYER
  5
2DD
330
2
100
AcDbSymbolTableRecord
100
AcDbLayerTableRecord
  2
6文字层
 70
     0
 62
     3
  6
CONTINUOUS
  0
LAYER
  5
2DF
330
2
100
AcDbSymbolTableRecord
100
AcDbLayerTableRecord
  2
7标注层
 70
     0
 62
     4
  6
CONTINUOUS
  0
LAYER
  5
2E1
330
2
100
AcDbSymbolTableRecord
100
AcDbLayerTableRecord
  2
2细线层
 70
     0
 62
     4
  6
CONTINUOUS
  0
LAYER
  5
2E3
330
2
100
AcDbSymbolTableRecord
100
AcDbLayerTableRecord
  2
ADSK_CONSTRAINTS
 70
     0
 62
     7
  6
CONTINUOUS
  0
ENDTAB
  0
TABLE
  2
STYLE
  5
3
330
0
100
AcDbSymbolTable
 70
     5
  0
STYLE
  5
11
330
3
100
AcDbSymbolTableRecord
100
AcDbTextStyleTableRecord
  2
STANDARD
 70
     0
 40
0.0
 41
1.0
 50
0.0
 71
     0
 42
2.5
  3
arial.ttf
  4

1001
ACAD
1000
Arial
1071
       34
  0
STYLE
  5
132
330
3
100
AcDbSymbolTableRecord
100
AcDbTextStyleTableRecord
  2
ANNOTATIVE
 70
     0
 40
0.0
 41
1.0
 50
0.0
 71
     0
 42
2.5
  3
arial.ttf
  4

1001
ACADANNOTATIVE
1000
AnnotativeData
1002
{
1070
     1
1070
     1
1002
}
1001
ACAD
1000
Arial
1071
       34
  0
STYLE
  5
2E4
330
3
100
AcDbSymbolTableRecord
100
AcDbTextStyleTableRecord
  2
标准
 70
     0
 40
9.59
 41
1.0
 50
0.0
 71
     0
 42
2.5
  3

  4

1001
ACAD
1000
SimSun
1071
       34
  0
STYLE
  5
2E5
330
3
100
AcDbSymbolTableRecord
100
AcDbTextStyleTableRecord
  2
TH-GBD2M
 70
     0
 40
2.5
 41
0.8
 50
0.0
 71
     0
 42
2.5
  3
calibri.ttf
  4

1001
ACADANNOTATIVE
1000
AnnotativeData
1002
{
1070
     1
1070
     1
1002
}
1001
ACAD
1000
Calibri
1071
       34
  0
STYLE
  5
2E6
330
3
100
AcDbSymbolTableRecord
100
AcDbTextStyleTableRecord
  2
TH_GBDIM
 70
     0
 40
1.5
 41
0.8
 50
0.0
 71
     0
 42
5.0
  3
calibri.ttf
  4

1001
ACAD
1000
Calibri
1071
       34
  0
ENDTAB
  0
TABLE
  2
VIEW
  5
6
330
0
100
AcDbSymbolTable
 70
     0
  0
ENDTAB
  0
TABLE
  2
UCS
  5
7
330
0
100
AcDbSymbolTable
 70
     0
  0
ENDTAB
  0
TABLE
  2
APPID
  5
9
330
0
100
AcDbSymbolTable
 70
    21
  0
APPID
  5
12
330
9
100
AcDbSymbolTableRecord
100
AcDbRegAppTableRecord
  2
ACAD
 70
     0
  0
APPID
  5
9E
330
9
100
AcDbSymbolTableRecord
100
AcDbRegAppTableRecord
  2
ACAD_PSEXT
 70
     0
  0
APPID
  5
133
330
9
100
AcDbSymbolTableRecord
100
AcDbRegAppTableRecord
  2
ACADANNOPO
 70
     0
  0
APPID
  5
134
330
9
100
AcDbSymbolTableRecord
100
AcDbRegAppTableRecord
  2
ACADANNOTATIVE
 70
     0
  0
APPID
  5
135
330
9
100
AcDbSymbolTableRecord
100
AcDbRegAppTableRecord
  2
ACAD_DSTYLE_DIMJAG
 70
     0
  0
APPID
  5
136
330
9
100
AcDbSymbolTableRecord
100
AcDbRegAppTableRecord
  2
ACAD_DSTYLE_DIMTALN
 70
     0
  0
APPID
  5
165
330
9
100
AcDbSymbolTableRecord
100
AcDbRegAppTableRecord
  2
ACAD_MLEADERVER
 70
     0
  0
APPID
  5
217
330
9
100
AcDbSymbolTableRecord
100
AcDbRegAppTableRecord
  2
ACAD_NAV_VCDISPLAY
 70
     0
  0
APPID
  5
2E9
330
9
100
AcDbSymbolTableRecord
100
AcDbRegAppTableRecord
  2
ACAD_DSTYLE_DIMBREAK
 70
     0
  0
APPID
  5
2EA
330
9
100
AcDbSymbolTableRecord
100
AcDbRegAppTableRecord
  2
ACAD_DSTYLE_DIMRADIAL_EXTE
 70
     0
  0
APPID
  5
2EB
330
9
100
AcDbSymbolTableRecord
100
AcDbRegAppTableRecord
  2
ACAD_DSTYLE_DIMINSPECT
 70
     0
  0
APPID
  5
2EC
330
9
100
AcDbSymbolTableRecord
100
AcDbRegAppTableRecord
  2
GENIUS_GENDTOL_13
 70
     0
  0
APPID
  5
2ED
330
9
100
AcDbSymbolTableRecord
100
AcDbRegAppTableRecord
  2
ACDBBLOCKREPETAG
 70
     0
  0
APPID
  5
2EE
330
9
100
AcDbSymbolTableRecord
100
AcDbRegAppTableRecord
  2
CAXA_DRAFT_PAPERFRAME
 70
     0
  0
APPID
  5
2EF
330
9
100
AcDbSymbolTableRecord
100
AcDbRegAppTableRecord
  2
CAXA_DRAFT_BLKHIDE
 70
     0
  0
APPID
  5
490
330
9
100
AcDbSymbolTableRecord
100
AcDbRegAppTableRecord
  2
ACAD_DSTYLE_DIMJAG_POSITIO
 70
     0
  0
APPID
  5
493
330
9
100
AcDbSymbolTableRecord
100
AcDbRegAppTableRecord
  2
ACADANNOMONITORALERTICONDI
 70
     0
  0
APPID
  5
494
330
9
100
AcDbSymbolTableRecord
100
AcDbRegAppTableRecord
  2
ACAD_EXEMPT_FROM_CAD_STAND
 70
     0
  0
APPID
  5
4F3
330
9
100
AcDbSymbolTableRecord
100
AcDbRegAppTableRecord
  2
ACAD_OBJECT_NAME
 70
     0
  0
APPID
  5
79D
330
9
100
AcDbSymbolTableRecord
100
AcDbRegAppTableRecord
  2
GRADIENTCOLOR1ACI
 70
     0
  0
APPID
  5
79E
330
9
100
AcDbSymbolTableRecord
100
AcDbRegAppTableRecord
  2
GRADIENTCOLOR2ACI
 70
     0
  0
ENDTAB
  0
TABLE
  2
DIMSTYLE
  5
A
330
0
100
AcDbSymbolTable
 70
     5
  0
DIMSTYLE
105
1B0
330
A
100
AcDbSymbolTableRecord
100
AcDbDimStyleTableRecord
  2
STANDARD
 70
     0
  3

  4

  5

  6

  7

 40
1.0
 41
0.18
 42
0.0625
 43
0.38
 44
0.18
 45
0.0
 46
0.0
 47
0.0
 48
0.0
140
0.18
141
0.09
142
0.0
143
25.4
144
1.0
145
0.0
146
1.0
147
0.09
 71
     0
 72
     0
 73
     1
 74
     1
 75
     0
 76
     0
 77
     0
 78
     0
170
     0
171
     2
172
     0
173
     0
174
     0
175
     0
176
     0
177
     0
178
     0
270
     2
271
     4
272
     4
273
     2
274
     2
340
11
275
     0
280
     0
281
     0
282
     0
283
     1
284
     0
285
     0
286
     0
287
     3
288
     0
  0
DIMSTYLE
105
137
330
A
100
AcDbSymbolTableRecord
100
AcDbDimStyleTableRecord
  2
ANNOTATIVE
 70
     0
  3

  4

  5

  6

  7

 40
0.0
 41
2.5
 42
0.625
 43
3.75
 44
1.25
 45
0.0
 46
0.0
 47
0.0
 48
0.0
140
2.5
141
2.5
142
0.0
143
0.03937007874016
144
1.0
145
0.0
146
1.0
147
0.625
 71
     0
 72
     0
 73
     0
 74
     0
 75
     0
 76
     0
 77
     1
 78
     8
170
     0
171
     3
172
     1
173
     0
174
     0
175
     0
176
     0
177
     0
178
     0
270
     2
271
     2
272
     2
273
     2
274
     3
340
11
275
     0
280
     0
281
     0
282
     0
283
     0
284
     8
285
     0
286
     0
287
     3
288
     0
1001
ACADANNOTATIVE
1000
AnnotativeData
1002
{
1070
     1
1070
     1
1002
}
1001
ACAD_DSTYLE_DIMJAG
1070
   388
1040
1.5
1001
ACAD_DSTYLE_DIMTALN
1070
   392
1070
     0
  0
DIMSTYLE
105
27
102
{ACAD_REACTORS
330
DBB
330
DBC
330
DBD
330
DBE
330
DBF
102
}
330
A
100
AcDbSymbolTableRecord
100
AcDbDimStyleTableRecord
  2
ISO-25
 70
     0
  3

  4

  5

  6

  7

 40
1.0
 41
2.5
 42
0.625
 43
3.75
 44
1.25
 45
0.0
 46
0.0
 47
0.0
 48
0.0
140
2.5
141
2.5
142
0.0
143
0.03937007874016
144
1.0
145
0.0
146
1.0
147
0.625
 71
     0
 72
     0
 73
     0
 74
     0
 75
     0
 76
     0
 77
     1
 78
     8
170
     0
171
     3
172
     1
173
     0
174
     0
175
     0
176
     0
177
     0
178
     0
270
     2
271
     2
272
     2
273
     2
274
     3
340
11
275
     0
280
     0
281
     0
282
     0
283
     0
284
     8
285
     0
286
     0
287
     3
288
     0
  0
DIMSTYLE
105
2E7
102
{ACAD_REACTORS
330
DA4
330
DA5
330
DAF
330
DB0
330
DB5
330
DB8
330
DB9
330
DBA
102
}
330
A
100
AcDbSymbolTableRecord
100
AcDbDimStyleTableRecord
  2
TH-GBD2M
 70
     0
  3

  4

  5

  6

  7

 40
1.0
 41
4.0
 42
0.0
 43
0.38
 44
2.0
 45
0.0
 46
0.0
 47
0.0
 48
0.0
140
2.5
141
0.0
142
0.0
143
25.4
144
1.0
145
0.0
146
1.0
147
1.5
 71
     0
 72
     0
 73
     0
 74
     0
 75
     0
 76
     0
 77
     1
 78
     1
170
     0
171
     2
172
     0
173
     0
174
     0
175
     0
176
     0
177
     0
178
     3
270
     2
271
     2
272
     2
273
     2
274
     2
340
2E5
275
     0
280
     0
281
     0
282
     0
283
     1
284
     0
285
     0
286
     0
287
     3
288
     0
1001
ACAD_DSTYLE_DIMBREAK
1070
   391
1040
3.75
1001
ACAD_DSTYLE_DIMJAG
1070
   388
1040
1.5
1001
ACAD_DSTYLE_DIMTALN
1070
   392
1070
     0
  0
DIMSTYLE
105
2E8
102
{ACAD_REACTORS
330
DAA
330
DAB
102
}
330
A
100
AcDbSymbolTableRecord
100
AcDbDimStyleTableRecord
  2
透镜标注
 70
     0
  3

  4

  5

  6

  7

 40
1.0
 41
4.0
 42
0.625
 43
3.75
 44
1.25
 45
0.0
 46
0.0
 47
0.0
 48
0.000000001
140
2.5
141
2.5
142
0.0
143
0.03937007874016
144
1.0
145
0.0
146
1.0
147
0.625
 71
     0
 72
     0
 73
     0
 74
     1
 75
     0
 76
     0
 77
     1
 78
     1
170
     0
171
     3
172
     1
173
     0
174
     0
175
     0
176
     0
177
     0
178
   256
270
     2
271
     2
272
     2
273
     2
274
     3
340
2E5
275
     0
280
     0
281
     0
282
     0
283
     0
284
     0
285
     0
286
     0
287
     3
288
     0
1001
ACAD_DSTYLE_DIMBREAK
1070
   391
1040
3.75
1001
ACAD_DSTYLE_DIMJAG
1070
   388
1040
1.5
1001
ACAD_DSTYLE_DIMTALN
1070
   392
1070
     0
  0
ENDTAB
  0
TABLE
  2
BLOCK_RECORD
  5
1
330
0
100
AcDbSymbolTable
 70
    11
  0
BLOCK_RECORD
  5
1F
102
{ACAD_XDICTIONARY
360
1CE
102
}
330
1
100
AcDbSymbolTableRecord
100
AcDbBlockTableRecord
  2
*MODEL_SPACE
  0
BLOCK_RECORD
  5
D2
330
1
100
AcDbSymbolTableRecord
100
AcDbBlockTableRecord
  2
*PAPER_SPACE
  0
BLOCK_RECORD
  5
36F
330
1
100
AcDbSymbolTableRecord
100
AcDbBlockTableRecord
  2
_CLOSEDBLANK
  0
BLOCK_RECORD
  5
C49
330
1
100
AcDbSymbolTableRecord
100
AcDbBlockTableRecord
  2
*X51
  0
BLOCK_RECORD
  5
DEE
330
1
100
AcDbSymbolTableRecord
100
AcDbBlockTableRecord
  2
*T65
  0
BLOCK_RECORD
  5
E0A
330
1
100
AcDbSymbolTableRecord
100
AcDbBlockTableRecord
  2
*D66
  0
BLOCK_RECORD
  5
E17
330
1
100
AcDbSymbolTableRecord
100
AcDbBlockTableRecord
  2
*D67
  0
BLOCK_RECORD
  5
E24
330
1
100
AcDbSymbolTableRecord
100
AcDbBlockTableRecord
  2
*D68
  0
BLOCK_RECORD
  5
E31
330
1
100
AcDbSymbolTableRecord
100
AcDbBlockTableRecord
  2
*D69
  0
BLOCK_RECORD
  5
E3D
330
1
100
AcDbSymbolTableRecord
100
AcDbBlockTableRecord
  2
*D70
  0
BLOCK_RECORD
  5
E4A
330
1
100
AcDbSymbolTableRecord
100
AcDbBlockTableRecord
  2
*D71
  0
BLOCK_RECORD
  5
E57
330
1
100
AcDbSymbolTableRecord
100
AcDbBlockTableRecord
  2
*D72
  0
BLOCK_RECORD
  5
E64
330
1
100
AcDbSymbolTableRecord
100
AcDbBlockTableRecord
  2
*D73
  0
ENDTAB
  0
ENDSEC
  0
SECTION
  2
BLOCKS
  0
BLOCK
  5
20
330
1F
100
AcDbEntity
  8
0
100
AcDbBlockBegin
  2
*MODEL_SPACE
 70
     0
 10
0.0
 20
0.0
 30
0.0
  3
*MODEL_SPACE
  1

  0
ENDBLK
  5
21
330
1F
100
AcDbEntity
  8
0
100
AcDbBlockEnd
  0
BLOCK
  5
D4
330
D2
100
AcDbEntity
 67
     1
  8
0
100
AcDbBlockBegin
  2
*PAPER_SPACE
 70
     0
 10
0.0
 20
0.0
 30
0.0
  3
*PAPER_SPACE
  1

  0
ENDBLK
  5
D5
330
D2
100
AcDbEntity
 67
     1
  8
0
100
AcDbBlockEnd
  0
BLOCK
  5
373
330
36F
100
AcDbEntity
  8
0
100
AcDbBlockBegin
  2
_CLOSEDBLANK
 70
     0
 10
0.0
 20
0.0
 30
0.0
  3
_CLOSEDBLANK
  1

  0
LINE
  5
370
330
36F
100
AcDbEntity
  8
0
  6
BYBLOCK
 62
     0
100
AcDbLine
 10
-1.0
 20
0.1666666666666667
 30
0.0
 11
0.0
 21
0.0
 31
0.0
  0
LINE
  5
371
330
36F
100
AcDbEntity
  8
0
  6
BYBLOCK
 62
     0
100
AcDbLine
 10
0.0
 20
0.0
 30
0.0
 11
-1.0
 21
-0.1666666666666667
 31
0.0
  0
LINE
  5
372
330
36F
100
AcDbEntity
  8
0
  6
BYBLOCK
 62
     0
100
AcDbLine
 10
-1.0
 20
0.1666666666666667
 30
0.0
 11
-1.0
 21
-0.1666666666666667
 31
0.0
  0
ENDBLK
  5
374
330
36F
100
AcDbEntity
  8
0
100
AcDbBlockEnd
  0
BLOCK
  5
C4A
330
C49
100
AcDbEntity
  8
0
100
AcDbBlockBegin
  2
*X51
 70
     1
 10
0.0
 20
0.0
 30
0.0
  3
*X51
  1

  0
LINE
  5
C4B
330
C49
100
AcDbEntity
  8
细实线层
100
AcDbLine
 10
-148.5
 20
-105.0
 30
0.0
 11
148.5
 21
-105.0
 31
0.0
  0
LINE
  5
C4C
330
C49
100
AcDbEntity
  8
细实线层
100
AcDbLine
 10
148.5
 20
-105.0
 30
0.0
 11
148.5
 21
105.0
 31
0.0
  0
LINE
  5
C4D
330
C49
100
AcDbEntity
  8
细实线层
100
AcDbLine
 10
148.5
 20
105.0
 30
0.0
 11
-148.5
 21
105.0
 31
0.0
  0
LINE
  5
C4E
330
C49
100
AcDbEntity
  8
细实线层
100
AcDbLine
 10
-148.5
 20
105.0
 30
0.0
 11
-148.5
 21
-105.0
 31
0.0
  0
LINE
  5
C4F
330
C49
100
AcDbEntity
  8
粗实线层
100
AcDbLine
 10
-138.5
 20
95.0
 30
0.0
 11
-138.5
 21
-95.0
 31
0.0
  0
LINE
  5
C50
330
C49
100
AcDbEntity
  8
粗实线层
100
AcDbLine
 10
-138.5
 20
-95.0
 30
0.0
 11
138.5
 21
-95.0
 31
0.0
  0
LINE
  5
C51
330
C49
100
AcDbEntity
  8
粗实线层
100
AcDbLine
 10
138.5
 20
-95.0
 30
0.0
 11
138.5
 21
95.0
 31
0.0
  0
LINE
  5
C52
330
C49
100
AcDbEntity
  8
粗实线层
100
AcDbLine
 10
138.5
 20
95.0
 30
0.0
 11
-138.5
 21
95.0
 31
0.0
  0
LINE
  5
C53
330
C49
100
AcDbEntity
  8
粗实线层
100
AcDbLine
 10
-148.5
 20
0.0
 30
0.0
 11
-133.5
 21
0.0
 31
0.0
  0
LINE
  5
C54
330
C49
100
AcDbEntity
  8
粗实线层
100
AcDbLine
 10
148.5
 20
0.0
 30
0.0
 11
133.5
 21
0.0
 31
0.0
  0
LINE
  5
C55
330
C49
100
AcDbEntity
  8
粗实线层
100
AcDbLine
 10
0.0
 20
105.0
 30
0.0
 11
0.0
 21
90.0
 31
0.0
  0
LINE
  5
C56
330
C49
100
AcDbEntity
  8
粗实线层
100
AcDbLine
 10
0.0
 20
-105.0
 30
0.0
 11
0.0
 21
-95.0
 31
0.0
  0
ENDBLK
  5
C57
330
C49
100
AcDbEntity
  8
0
100
AcDbBlockEnd
  0
BLOCK
  5
E08
330
DEE
100
AcDbEntity
  8
0
100
AcDbBlockBegin
  2
*T65
 70
     1
 10
0.0
 20
0.0
 30
0.0
  3
*T65
  1

  0
MTEXT
  5
DEF
330
DEE
100
AcDbEntity
  8
2细线层
 62
     3
100
AcDbMText
 10
60.65000000000001
 20
-3.166666666666671
 30
0.0
 40
2.5
 41
33.0
 71
     5
 72
     5
  1
{\fSimSun|b1|i0|c134|p34;S1}
  0
MTEXT
  5
DF0
330
DEE
100
AcDbEntity
  8
2细线层
 62
     3
100
AcDbMText
 10
96.65
 20
-3.166666666666671
 30
0.0
 40
2.5
 41
33.0
 71
     5
 72
     5
  1
{\fSimSun|b1|i0|c134|p34;S2}
  0
MTEXT
  5
DF1
330
DEE
100
AcDbEntity
  8
2细线层
 62
     3
100
AcDbMText
 10
21.325
 20
-9.5
 30
0.0
 40
2.5
 41
39.65
 71
     5
 72
     5
  1
{\fSimSun|b1|i0|c134|p34;形状}
  0
MTEXT
  5
DF2
330
DEE
100
AcDbEntity
  8
2细线层
 62
     3
100
AcDbMText
 10
60.65000000000001
 20
-9.5
 30
0.0
 40
2.5
 41
33.0
 71
     5
 72
     5
  1
{\fSimSun|b1|i0|c134|p34;平面}
  0
MTEXT
  5
DF3
330
DEE
100
AcDbEntity
  8
2细线层
 62
     3
100
AcDbMText
 10
96.65
 20
-9.5
 30
0.0
 40
2.5
 41
33.0
 71
     5
 72
     5
  1
{\fSimSun|b1|i0|c134|p34;凹面}
  0
MTEXT
  5
DF4
330
DEE
100
AcDbEntity
  8
2细线层
 62
     3
100
AcDbMText
 10
21.325
 20
-15.83333333333334
 30
0.0
 40
2.5
 41
39.65
 71
     5
 72
     5
  1
{\fSimSun|b1|i0|c134|p34;曲率半径}
  0
MTEXT
  5
DF5
330
DEE
100
AcDbEntity
  8
2细线层
 62
     3
100
AcDbMText
 10
60.65000000000001
 20
-15.83333333333334
 30
0.0
 40
2.5
 41
33.0
 71
     5
 72
     5
  1
{\fSimSun|b1|i0|c134|p34;无穷}
  0
MTEXT
  5
DF6
330
DEE
100
AcDbEntity
  8
2细线层
 62
     3
100
AcDbMText
 10
96.65
 20
-15.83333333333334
 30
0.0
 40
2.5
 41
33.0
 71
     5
 72
     5
  1
{\fSimSun|b1|i0|c134|p34;100.00}
  0
MTEXT
  5
DF7
330
DEE
100
AcDbEntity
  8
2细线层
 62
     3
100
AcDbMText
 10
21.325
 20
-22.16666666666667
 30
0.0
 40
2.5
 41
39.65
 71
     5
 72
     5
  1
{\fSimSun|b1|i0|c134|p34;通光孔径}
  0
MTEXT
  5
DF8
330
DEE
100
AcDbEntity
  8
2细线层
 62
     3
100
AcDbMText
 10
60.65000000000001
 20
-22.16666666666667
 30
0.0
 40
2.5
 41
33.0
 71
     5
 72
     5
  1
{\fSimSun|b1|i0|c134|p34;/}
  0
MTEXT
  5
DF9
330
DEE
100
AcDbEntity
  8
2细线层
 62
     3
100
AcDbMText
 10
96.65
 20
-22.16666666666667
 30
0.0
 40
2.5
 41
33.0
 71
     5
 72
     5
  1
{\fSimSun|b1|i0|c134|p34;>90%}
  0
MTEXT
  5
DFA
330
DEE
100
AcDbEntity
  8
2细线层
 62
     3
100
AcDbMText
 10
21.325
 20
-28.50000000000001
 30
0.0
 40
2.5
 41
39.65
 71
     5
 72
     5
  1
{\fSimSun|b1|i0|c134|p34;光洁度}
  0
MTEXT
  5
DFB
330
DEE
100
AcDbEntity
  8
2细线层
 62
     3
100
AcDbMText
 10
60.65000000000001
 20
-28.50000000000001
 30
0.0
 40
2.5
 41
33.0
 71
     5
 72
     5
  1
{\fSimSun|b1|i0|c134|p34;细磨或检验性抛光}
  0
MTEXT
  5
DFC
330
DEE
100
AcDbEntity
  8
2细线层
 62
     3
100
AcDbMText
 10
96.65
 20
-28.50000000000001
 30
0.0
 40
2.5
 41
33.0
 71
     5
 72
     5
  1
{\fSimSun|b1|i0|c134|p34;40-20}
  0
LINE
  5
DFD
330
DEE
100
AcDbEntity
  8
2细线层
  6
BYBLOCK
 62
     0
100
AcDbLine
 10
0.0
 20
0.0
 30
0.0
 11
114.65
 21
0.0
 31
0.0
  0
LINE
  5
DFE
330
DEE
100
AcDbEntity
  8
2细线层
  6
BYBLOCK
 62
     0
100
AcDbLine
 10
0.0
 20
-6.333333333333336
 30
0.0
 11
114.65
 21
-6.333333333333336
 31
0.0
  0
LINE
  5
DFF
330
DEE
100
AcDbEntity
  8
2细线层
  6
BYBLOCK
 62
     0
100
AcDbLine
 10
0.0
 20
-12.66666666666667
 30
0.0
 11
114.65
 21
-12.66666666666667
 31
0.0
  0
LINE
  5
E00
330
DEE
100
AcDbEntity
  8
2细线层
  6
BYBLOCK
 62
     0
100
AcDbLine
 10
0.0
 20
-19.00000000000001
 30
0.0
 11
114.65
 21
-19.00000000000001
 31
0.0
  0
LINE
  5
E01
330
DEE
100
AcDbEntity
  8
2细线层
  6
BYBLOCK
 62
     0
100
AcDbLine
 10
0.0
 20
-25.33333333333334
 30
0.0
 11
114.65
 21
-25.33333333333334
 31
0.0
  0
LINE
  5
E02
330
DEE
100
AcDbEntity
  8
2细线层
  6
BYBLOCK
 62
     0
100
AcDbLine
 10
0.0
 20
-31.66666666666668
 30
0.0
 11
114.65
 21
-31.66666666666668
 31
0.0
  0
LINE
  5
E03
330
DEE
100
AcDbEntity
  8
2细线层
  6
BYBLOCK
 62
     0
100
AcDbLine
 10
0.0
 20
0.0
 30
0.0
 11
0.0
 21
-31.66666666666668
 31
0.0
  0
LINE
  5
E04
330
DEE
100
AcDbEntity
  8
2细线层
  6
BYBLOCK
 62
     0
100
AcDbLine
 10
42.65
 20
0.0
 30
0.0
 11
42.65
 21
-31.66666666666668
 31
0.0
  0
LINE
  5
E05
330
DEE
100
AcDbEntity
  8
2细线层
  6
BYBLOCK
 62
     0
100
AcDbLine
 10
78.65
 20
0.0
 30
0.0
 11
78.65
 21
-31.66666666666668
 31
0.0
  0
LINE
  5
E06
330
DEE
100
AcDbEntity
  8
2细线层
  6
BYBLOCK
 62
     0
100
AcDbLine
 10
114.65
 20
0.0
 30
0.0
 11
114.65
 21
-31.66666666666668
 31
0.0
  0
LINE
  5
E07
330
DEE
100
AcDbEntity
  8
DEFPOINTS
 62
     8
 60
     1
100
AcDbLine
 10
0.0
 20
0.0
 30
0.0
 11
0.0
 21
0.0
 31
0.0
  0
ENDBLK
  5
E09
330
DEE
100
AcDbEntity
  8
0
100
AcDbBlockEnd
  0
BLOCK
  5
E0B
330
E0A
100
AcDbEntity
  8
0
100
AcDbBlockBegin
  2
*D66
 70
     1
 10
0.0
 20
0.0
 30
0.0
  3
*D66
  1

  0
LINE
  5
E75
330
E0A
100
AcDbEntity
  8
7标注层
 62
     0
100
AcDbLine
 10
206.7358588254165
 20
148.2852642940147
 30
0.0
 11
206.7358588254165
 21
170.0788823464159
 31
0.0
  0
LINE
  5
E76
330
E0A
100
AcDbEntity
  8
7标注层
 62
     0
100
AcDbLine
 10
215.7359281486724
 20
148.2852642940147
 30
0.0
 11
215.7359281486724
 21
170.0788823464159
 31
0.0
  0
LINE
  5
E77
330
E0A
100
AcDbEntity
  8
7标注层
 62
     0
100
AcDbLine
 10
202.7358588254165
 20
168.0788823464159
 30
0.0
 11
198.7358588254165
 21
168.0788823464159
 31
0.0
  0
LINE
  5
E78
330
E0A
100
AcDbEntity
  8
7标注层
 62
     0
100
AcDbLine
 10
219.7359281486724
 20
168.0788823464159
 30
0.0
 11
239.2420819948264
 21
168.0788823464159
 31
0.0
  0
SOLID
  5
E79
330
E0A
100
AcDbEntity
  8
7标注层
 62
     0
100
AcDbTrace
 10
202.7358588254165
 20
168.7455490130825
 30
0.0
 11
202.7358588254165
 21
167.4122156797492
 31
0.0
 12
206.7358588254165
 22
168.0788823464159
 32
0.0
 13
206.7358588254165
 23
168.0788823464159
 33
0.0
  0
SOLID
  5
E7A
330
E0A
100
AcDbEntity
  8
7标注层
 62
     0
100
AcDbTrace
 10
219.7359281486724
 20
168.7455490130825
 30
0.0
 11
219.7359281486724
 21
167.4122156797492
 31
0.0
 12
215.7359281486724
 22
168.0788823464159
 32
0.0
 13
215.7359281486724
 23
168.0788823464159
 33
0.0
  0
MTEXT
  5
E7B
330
E0A
100
AcDbEntity
  8
7标注层
 62
     3
100
AcDbMText
 10
231.4890050717495
 20
170.8596515771851
 30
0.0
 40
2.5
 41
0.0
 71
     5
 72
     1
  1
\A1;9.00%%p0.20
  7
TH-GBD2M
  0
POINT
  5
E7C
330
E0A
100
AcDbEntity
  8
DEFPOINTS
 62
     0
100
AcDbPoint
 10
206.7358588254165
 20
148.2852642940147
 30
0.0
  0
POINT
  5
E7D
330
E0A
100
AcDbEntity
  8
DEFPOINTS
 62
     0
100
AcDbPoint
 10
215.7359281486724
 20
148.2852642940147
 30
0.0
  0
POINT
  5
E7E
330
E0A
100
AcDbEntity
  8
DEFPOINTS
 62
     0
100
AcDbPoint
 10
215.7359281486724
 20
168.0788823464159
 30
0.0
  0
ENDBLK
  5
E0C
330
E0A
100
AcDbEntity
  8
0
100
AcDbBlockEnd
  0
BLOCK
  5
E18
330
E17
100
AcDbEntity
  8
0
100
AcDbBlockBegin
  2
*D67
 70
     1
 10
0.0
 20
0.0
 30
0.0
  3
*D67
  1

  0
LINE
  5
E7F
330
E17
100
AcDbEntity
  8
7标注层
 62
     0
100
AcDbLine
 10
206.7358588254165
 20
135.7852642940147
 30
0.0
 11
206.7358588254165
 21
128.6807455192011
 31
0.0
  0
LINE
  5
E80
330
E17
100
AcDbEntity
  8
7标注层
 62
     0
100
AcDbLine
 10
216.5064833261931
 20
135.7852642940147
 30
0.0
 11
216.5064833261931
 21
128.6807455192011
 31
0.0
  0
LINE
  5
E81
330
E17
100
AcDbEntity
  8
7标注层
 62
     0
100
AcDbLine
 10
202.7358588254165
 20
130.6807455192011
 30
0.0
 11
198.7358588254165
 21
130.6807455192011
 31
0.0
  0
LINE
  5
E82
330
E17
100
AcDbEntity
  8
7标注层
 62
     0
100
AcDbLine
 10
220.5064833261931
 20
130.6807455192011
 30
0.0
 11
224.5064833261931
 21
130.6807455192011
 31
0.0
  0
SOLID
  5
E83
330
E17
100
AcDbEntity
  8
7标注层
 62
     0
100
AcDbTrace
 10
202.7358588254165
 20
131.3474121858677
 30
0.0
 11
202.7358588254165
 21
130.0140788525344
 31
0.0
 12
206.7358588254165
 22
130.6807455192011
 32
0.0
 13
206.7358588254165
 23
130.6807455192011
 33
0.0
  0
SOLID
  5
E84
330
E17
100
AcDbEntity
  8
7标注层
 62
     0
100
AcDbTrace
 10
220.5064833261931
 20
131.3474121858677
 30
0.0
 11
220.5064833261931
 21
130.0140788525344
 31
0.0
 12
216.5064833261931
 22
130.6807455192011
 32
0.0
 13
216.5064833261931
 23
130.6807455192011
 33
0.0
  0
MTEXT
  5
E85
330
E17
100
AcDbEntity
  8
7标注层
 62
     3
100
AcDbMText
 10
211.6211710758048
 20
133.4615147499703
 30
0.0
 40
2.5
 41
0.0
 71
     5
 72
     1
  1
\A1;9.77
  7
TH-GBD2M
  0
POINT
  5
E86
330
E17
100
AcDbEntity
  8
DEFPOINTS
 62
     0
100
AcDbPoint
 10
206.7358588254165
 20
135.7852642940147
 30
0.0
  0
POINT
  5
E87
330
E17
100
AcDbEntity
  8
DEFPOINTS
 62
     0
100
AcDbPoint
 10
216.5064833261931
 20
135.7852642940147
 30
0.0
  0
POINT
  5
E88
330
E17
100
AcDbEntity
  8
DEFPOINTS
 62
     0
100
AcDbPoint
 10
216.5064833261931
 20
130.6807455192011
 30
0.0
  0
ENDBLK
  5
E19
330
E17
100
AcDbEntity
  8
0
100
AcDbBlockEnd
  0
BLOCK
  5
E25
330
E24
100
AcDbEntity
  8
0
100
AcDbBlockBegin
  2
*D68
 70
     1
 10
0.0
 20
0.0
 30
0.0
  3
*D68
  1

  0
LINE
  5
E89
330
E24
100
AcDbEntity
  8
7标注层
 62
     0
100
AcDbLine
 10
146.4934822753166
 20
161.4102642940147
 30
0.0
 11
146.4934822753166
 21
169.6380340493793
 31
0.0
  0
LINE
  5
E8A
330
E24
100
AcDbEntity
  8
7标注层
 62
     0
100
AcDbLine
 10
166.4934822753166
 20
161.4102642940147
 30
0.0
 11
166.4934822753166
 21
169.6380340493793
 31
0.0
  0
LINE
  5
E8B
330
E24
100
AcDbEntity
  8
7标注层
 62
     0
100
AcDbLine
 10
150.4934822753166
 20
168.3880340493793
 30
0.0
 11
162.4934822753166
 21
168.3880340493793
 31
0.0
  0
LINE
  5
E8C
330
E24
100
AcDbEntity
  8
7标注层
 62
     0
100
AcDbLine
 10
166.4934822753166
 20
168.3880340493793
 30
0.0
 11
183.2492976599322
 21
168.3880340493793
 31
0.0
  0
SOLID
  5
E8D
330
E24
100
AcDbEntity
  8
7标注层
 62
     0
100
AcDbTrace
 10
150.4934822753166
 20
169.0547007160459
 30
0.0
 11
150.4934822753166
 21
167.7213673827126
 31
0.0
 12
146.4934822753166
 22
168.3880340493793
 32
0.0
 13
146.4934822753166
 23
168.3880340493793
 33
0.0
  0
SOLID
  5
E8E
330
E24
100
AcDbEntity
  8
7标注层
 62
     0
100
AcDbTrace
 10
162.4934822753166
 20
169.0547007160459
 30
0.0
 11
162.4934822753166
 21
167.7213673827126
 31
0.0
 12
166.4934822753166
 22
168.3880340493793
 32
0.0
 13
166.4934822753166
 23
168.3880340493793
 33
0.0
  0
MTEXT
  5
E8F
330
E24
100
AcDbEntity
  8
7标注层
100
AcDbMText
 10
176.8713899676245
 20
171.1458289211741
 30
0.0
 40
2.5
 41
0.0
 71
     5
 72
     1
  1
20.00{}{\H0.71x;\C3;\S 0.00^ -0.10;}
  7
TH-GBD2M
  0
POINT
  5
E90
330
E24
100
AcDbEntity
  8
DEFPOINTS
 62
     0
100
AcDbPoint
 10
146.4934822753166
 20
160.7852642940147
 30
0.0
  0
POINT
  5
E91
330
E24
100
AcDbEntity
  8
DEFPOINTS
 62
     0
100
AcDbPoint
 10
166.4934822753166
 20
160.7852642940147
 30
0.0
  0
POINT
  5
E92
330
E24
100
AcDbEntity
  8
DEFPOINTS
 62
     0
100
AcDbPoint
 10
166.4934822753166
 20
168.3880340493793
 30
0.0
  0
ENDBLK
  5
E26
330
E24
100
AcDbEntity
  8
0
100
AcDbBlockEnd
  0
BLOCK
  5
E32
330
E31
100
AcDbEntity
  8
0
100
AcDbBlockBegin
  2
*D69
 70
     1
 10
0.0
 20
0.0
 30
0.0
  3
*D69
  1

  0
LINE
  5
E93
330
E31
100
AcDbEntity
  8
7标注层
 62
     0
100
AcDbLine
 10
145.8684822753167
 20
135.7852642940148
 30
0.0
 11
140.6069939235608
 21
135.7852642940148
 31
0.0
  0
LINE
  5
E94
330
E31
100
AcDbEntity
  8
7标注层
 62
     0
100
AcDbLine
 10
145.8684822753167
 20
160.7852642940148
 30
0.0
 11
140.6069939235608
 21
160.7852642940148
 31
0.0
  0
LINE
  5
E95
330
E31
100
AcDbEntity
  8
7标注层
 62
     0
100
AcDbLine
 10
141.8569939235608
 20
139.7852642940148
 30
0.0
 11
141.8569939235608
 21
156.7852642940148
 31
0.0
  0
SOLID
  5
E96
330
E31
100
AcDbEntity
  8
7标注层
 62
     0
100
AcDbTrace
 10
141.1903272568942
 20
139.7852642940148
 30
0.0
 11
142.5236605902275
 21
139.7852642940148
 31
0.0
 12
141.8569939235608
 22
135.7852642940148
 32
0.0
 13
141.8569939235608
 23
135.7852642940148
 33
0.0
  0
SOLID
  5
E97
330
E31
100
AcDbEntity
  8
7标注层
 62
     0
100
AcDbTrace
 10
141.1903272568942
 20
156.7852642940148
 30
0.0
 11
142.5236605902275
 21
156.7852642940148
 31
0.0
 12
141.8569939235608
 22
160.7852642940148
 32
0.0
 13
141.8569939235608
 23
160.7852642940148
 33
0.0
  0
MTEXT
  5
E98
330
E31
100
AcDbEntity
  8
7标注层
100
AcDbMText
 10
139.0991990517659
 20
148.2852642940147
 30
0.0
 40
2.5
 41
0.0
 71
     5
 72
     1
  1
25.00{}{\H0.71x;\C3;\S 0.00^ -0.10;}
  7
TH-GBD2M
 11
6.123233995736766E-17
 21
1.0
 31
0.0
  0
POINT
  5
E99
330
E31
100
AcDbEntity
  8
DEFPOINTS
 62
     0
100
AcDbPoint
 10
146.4934822753167
 20
135.7852642940148
 30
0.0
  0
POINT
  5
E9A
330
E31
100
AcDbEntity
  8
DEFPOINTS
 62
     0
100
AcDbPoint
 10
146.4934822753167
 20
160.7852642940148
 30
0.0
  0
POINT
  5
E9B
330
E31
100
AcDbEntity
  8
DEFPOINTS
 62
     0
100
AcDbPoint
 10
141.8569939235608
 20
160.7852642940148
 30
0.0
  0
ENDBLK
  5
E33
330
E31
100
AcDbEntity
  8
0
100
AcDbBlockEnd
  0
BLOCK
  5
E3E
330
E3D
100
AcDbEntity
  8
0
100
AcDbBlockBegin
  2
*D70
 70
     1
 10
0.0
 20
0.0
 30
0.0
  3
*D70
  1

  0
LINE
  5
E9C
330
E3D
100
AcDbEntity
  8
7标注层
 62
     0
100
AcDbLine
 10
146.8468001530405
 20
106.6624463509345
 30
0.0
 11
132.9474108188588
 21
106.6624463509345
 31
0.0
  0
LINE
  5
E9D
330
E3D
100
AcDbEntity
  8
7标注层
 62
     0
100
AcDbLine
 10
146.8468001530405
 20
94.48703000612002
 30
0.0
 11
132.9474108188588
 21
94.48703000612002
 31
0.0
  0
LINE
  5
E9E
330
E3D
100
AcDbEntity
  8
7标注层
 62
     0
100
AcDbLine
 10
134.9474108188588
 20
102.6624463509345
 30
0.0
 11
134.9474108188588
 21
98.48703000612004
 31
0.0
  0
LINE
  5
E9F
330
E3D
100
AcDbEntity
  8
7标注层
 62
     0
100
AcDbLine
 10
134.9474108188588
 20
94.48703000612002
 30
0.0
 11
134.9474108188588
 21
80.7008761599655
 31
0.0
  0
SOLID
  5
EA0
330
E3D
100
AcDbEntity
  8
7标注层
 62
     0
100
AcDbTrace
 10
134.2807441521921
 20
102.6624463509345
 30
0.0
 11
135.6140774855254
 21
102.6624463509345
 31
0.0
 12
134.9474108188588
 22
106.6624463509345
 32
0.0
 13
134.9474108188588
 23
106.6624463509345
 33
0.0
  0
SOLID
  5
EA1
330
E3D
100
AcDbEntity
  8
7标注层
 62
     0
100
AcDbTrace
 10
134.2807441521921
 20
98.48703000612004
 30
0.0
 11
135.6140774855254
 21
98.48703000612004
 31
0.0
 12
134.9474108188588
 22
94.48703000612002
 32
0.0
 13
134.9474108188588
 23
94.48703000612002
 33
0.0
  0
MTEXT
  5
EA2
330
E3D
100
AcDbEntity
  8
7标注层
 62
     3
100
AcDbMText
 10
132.1666415880895
 20
85.59395308304238
 30
0.0
 40
2.5
 41
0.0
 71
     5
 72
     1
  1
\A1;12.18
  7
TH-GBD2M
 11
6.123233995736766E-17
 21
1.0
 31
0.0
  0
POINT
  5
EA3
330
E3D
100
AcDbEntity
  8
DEFPOINTS
 62
     0
100
AcDbPoint
 10
146.8468001530405
 20
106.6624463509345
 30
0.0
  0
POINT
  5
EA4
330
E3D
100
AcDbEntity
  8
DEFPOINTS
 62
     0
100
AcDbPoint
 10
146.8468001530405
 20
94.48703000612002
 30
0.0
  0
POINT
  5
EA5
330
E3D
100
AcDbEntity
  8
DEFPOINTS
 62
     0
100
AcDbPoint
 10
134.9474108188588
 20
94.48703000612002
 30
0.0
  0
ENDBLK
  5
E3F
330
E3D
100
AcDbEntity
  8
0
100
AcDbBlockEnd
  0
BLOCK
  5
E4B
330
E4A
100
AcDbEntity
  8
0
100
AcDbBlockBegin
  2
*D71
 70
     1
 10
0.0
 20
0.0
 30
0.0
  3
*D71
  1

  0
LINE
  5
EA6
330
E4A
100
AcDbEntity
  8
7标注层
 62
     0
100
AcDbLine
 10
146.8468001530405
 20
106.6624463509345
 30
0.0
 11
126.02971722861
 21
106.6624463509345
 31
0.0
  0
LINE
  5
EA7
330
E4A
100
AcDbEntity
  8
7标注层
 62
     0
100
AcDbLine
 10
146.4934822753167
 20
97.6670300061208
 30
0.0
 11
126.02971722861
 21
97.6670300061208
 31
0.0
  0
LINE
  5
EA8
330
E4A
100
AcDbEntity
  8
7标注层
 62
     0
100
AcDbLine
 10
128.02971722861
 20
110.6624463509345
 30
0.0
 11
128.02971722861
 21
114.6624463509345
 31
0.0
  0
LINE
  5
EA9
330
E4A
100
AcDbEntity
  8
7标注层
 62
     0
100
AcDbLine
 10
128.02971722861
 20
93.66703000612078
 30
0.0
 11
128.02971722861
 21
89.66703000612078
 31
0.0
  0
SOLID
  5
EAA
330
E4A
100
AcDbEntity
  8
7标注层
 62
     0
100
AcDbTrace
 10
127.3630505619434
 20
110.6624463509345
 30
0.0
 11
128.6963838952767
 21
110.6624463509345
 31
0.0
 12
128.02971722861
 22
106.6624463509345
 32
0.0
 13
128.02971722861
 23
106.6624463509345
 33
0.0
  0
SOLID
  5
EAB
330
E4A
100
AcDbEntity
  8
7标注层
 62
     0
100
AcDbTrace
 10
127.3630505619434
 20
93.66703000612078
 30
0.0
 11
128.6963838952767
 21
93.66703000612078
 31
0.0
 12
128.02971722861
 22
97.6670300061208
 32
0.0
 13
128.02971722861
 23
97.6670300061208
 33
0.0
  0
MTEXT
  5
EAC
330
E4A
100
AcDbEntity
  8
7标注层
 62
     3
100
AcDbMText
 10
125.2489479978408
 20
102.1647381785276
 30
0.0
 40
2.5
 41
0.0
 71
     5
 72
     1
  1
\A1;9.00
  7
TH-GBD2M
 11
6.123233995736766E-17
 21
1.0
 31
0.0
  0
POINT
  5
EAD
330
E4A
100
AcDbEntity
  8
DEFPOINTS
 62
     0
100
AcDbPoint
 10
146.8468001530405
 20
106.6624463509345
 30
0.0
  0
POINT
  5
EAE
330
E4A
100
AcDbEntity
  8
DEFPOINTS
 62
     0
100
AcDbPoint
 10
146.4934822753167
 20
97.6670300061208
 30
0.0
  0
POINT
  5
EAF
330
E4A
100
AcDbEntity
  8
DEFPOINTS
 62
     0
100
AcDbPoint
 10
128.02971722861
 20
97.6670300061208
 30
0.0
  0
ENDBLK
  5
E4C
330
E4A
100
AcDbEntity
  8
0
100
AcDbBlockEnd
  0
BLOCK
  5
E58
330
E57
100
AcDbEntity
  8
0
100
AcDbBlockBegin
  2
*D72
 70
     1
 10
0.0
 20
0.0
 30
0.0
  3
*D72
  1

  0
LINE
  5
EB0
330
E57
100
AcDbEntity
  8
7标注层
 62
     0
100
AcDbLine
 10
166.4934822753167
 20
106.6670300061203
 30
0.0
 11
162.9454685883238
 21
106.6670300061203
 31
0.0
  0
LINE
  5
EB1
330
E57
100
AcDbEntity
  8
7标注层
 62
     0
100
AcDbLine
 10
166.4934822753167
 20
97.54195178331116
 30
0.0
 11
162.9454685883238
 21
97.54195178331116
 31
0.0
  0
LINE
  5
EB2
330
E57
100
AcDbEntity
  8
7标注层
 62
     0
100
AcDbLine
 10
164.9454685883238
 20
110.6670300061203
 30
0.0
 11
164.9454685883238
 21
114.6670300061203
 31
0.0
  0
LINE
  5
EB3
330
E57
100
AcDbEntity
  8
7标注层
 62
     0
100
AcDbLine
 10
164.9454685883238
 20
93.54195178331115
 30
0.0
 11
164.9454685883238
 21
81.27272101407964
 31
0.0
  0
SOLID
  5
EB4
330
E57
100
AcDbEntity
  8
7标注层
 62
     0
100
AcDbTrace
 10
164.2788019216572
 20
110.6670300061203
 30
0.0
 11
165.6121352549905
 21
110.6670300061203
 31
0.0
 12
164.9454685883238
 22
106.6670300061203
 32
0.0
 13
164.9454685883238
 23
106.6670300061203
 33
0.0
  0
SOLID
  5
EB5
330
E57
100
AcDbEntity
  8
7标注层
 62
     0
100
AcDbTrace
 10
164.2788019216572
 20
93.54195178331115
 30
0.0
 11
165.6121352549905
 21
93.54195178331115
 31
0.0
 12
164.9454685883238
 22
97.54195178331116
 32
0.0
 13
164.9454685883238
 23
97.54195178331116
 33
0.0
  0
MTEXT
  5
EB6
330
E57
100
AcDbEntity
  8
7标注层
 62
     3
100
AcDbMText
 10
162.1646993575546
 20
85.40733639869495
 30
0.0
 40
2.5
 41
0.0
 71
     5
 72
     1
  1
\A1;9.13
  7
TH-GBD2M
 11
6.123233995736766E-17
 21
1.0
 31
0.0
  0
POINT
  5
EB7
330
E57
100
AcDbEntity
  8
DEFPOINTS
 62
     0
100
AcDbPoint
 10
166.4934822753167
 20
106.6670300061203
 30
0.0
  0
POINT
  5
EB8
330
E57
100
AcDbEntity
  8
DEFPOINTS
 62
     0
100
AcDbPoint
 10
166.4934822753167
 20
97.54195178331116
 30
0.0
  0
POINT
  5
EB9
330
E57
100
AcDbEntity
  8
DEFPOINTS
 62
     0
100
AcDbPoint
 10
164.9454685883238
 20
97.54195178331116
 30
0.0
  0
ENDBLK
  5
E59
330
E57
100
AcDbEntity
  8
0
100
AcDbBlockEnd
  0
BLOCK
  5
E65
330
E64
100
AcDbEntity
  8
0
100
AcDbBlockBegin
  2
*D73
 70
     1
 10
0.0
 20
0.0
 30
0.0
  3
*D73
  1

  0
LINE
  5
EBA
330
E64
100
AcDbEntity
  8
7标注层
 62
     0
100
AcDbLine
 10
166.8468001530405
 20
106.6670300061203
 30
0.0
 11
166.8468001530405
 21
120.3675363916029
 31
0.0
  0
LINE
  5
EBB
330
E64
100
AcDbEntity
  8
7标注层
 62
     0
100
AcDbLine
 10
171.8468001530405
 20
106.71827299407
 30
0.0
 11
171.8468001530405
 21
120.3675363916029
 31
0.0
  0
LINE
  5
EBC
330
E64
100
AcDbEntity
  8
7标注层
 62
     0
100
AcDbLine
 10
162.8468001530405
 20
118.3675363916029
 30
0.0
 11
158.8468001530405
 21
118.3675363916029
 31
0.0
  0
LINE
  5
EBD
330
E64
100
AcDbEntity
  8
7标注层
 62
     0
100
AcDbLine
 10
175.8468001530405
 20
118.3675363916029
 30
0.0
 11
189.1164013006713
 21
118.3675363916029
 31
0.0
  0
SOLID
  5
EBE
330
E64
100
AcDbEntity
  8
7标注层
 62
     0
100
AcDbTrace
 10
162.8468001530405
 20
119.0342030582696
 30
0.0
 11
162.8468001530405
 21
117.7008697249363
 31
0.0
 12
166.8468001530405
 22
118.3675363916029
 32
0.0
 13
166.8468001530405
 23
118.3675363916029
 33
0.0
  0
SOLID
  5
EBF
330
E64
100
AcDbEntity
  8
7标注层
 62
     0
100
AcDbTrace
 10
175.8468001530405
 20
119.0342030582696
 30
0.0
 11
175.8468001530405
 21
117.7008697249363
 31
0.0
 12
171.8468001530405
 22
118.3675363916029
 32
0.0
 13
171.8468001530405
 23
118.3675363916029
 33
0.0
  0
MTEXT
  5
EC0
330
E64
100
AcDbEntity
  8
7标注层
 62
     3
100
AcDbMText
 10
184.9556320699021
 20
121.1483056223722
 30
0.0
 40
2.5
 41
0.0
 71
     5
 72
     1
  1
\A1;5.00
  7
TH-GBD2M
  0
POINT
  5
EC1
330
E64
100
AcDbEntity
  8
DEFPOINTS
 62
     0
100
AcDbPoint
 10
166.8468001530405
 20
106.6670300061203
 30
0.0
  0
POINT
  5
EC2
330
E64
100
AcDbEntity
  8
DEFPOINTS
 62
     0
100
AcDbPoint
 10
171.8468001530405
 20
106.71827299407
 30
0.0
  0
POINT
  5
EC3
330
E64
100
AcDbEntity
  8
DEFPOINTS
 62
     0
100
AcDbPoint
 10
171.8468001530405
 20
118.3675363916029
 30
0.0
  0
ENDBLK
  5
E66
330
E64
100
AcDbEntity
  8
0
100
AcDbBlockEnd
  0
ENDSEC
  0
SECTION
  2
ENTITIES
  0
LINE
  5
D78
330
1F
100
AcDbEntity
  8
6文字层
 62
     0
100
AcDbLine
 10
147.0
 20
9.999999999998181
 30
0.0
 11
26.99999999994907
 21
9.999999999998181
 31
0.0
  0
INSERT
  5
D79
330
1F
100
AcDbEntity
  8
6文字层
100
AcDbBlockReference
  2
*X51
 10
148.5
 20
105.0
 30
0.0
1001
CAXA_DRAFT_PAPERFRAME
1071
        2
1041
138.5
1041
-95.0
1041
0.0
1000
A4A-D-Sighted(CHS)
1070
     1
1001
CAXA_DRAFT_BLKHIDE
1070
     0
  0
LINE
  5
D7A
330
1F
100
AcDbEntity
  8
1轮廓实线层
100
AcDbLine
 10
147.0
 20
9.999999999998181
 30
0.0
 11
287.0
 21
9.999999999998181
 31
0.0
  0
LINE
  5
D7B
330
1F
100
AcDbEntity
  8
粗实线层
100
AcDbLine
 10
182.0003469713993
 20
15.84100763374863
 30
0.0
 11
287.0
 21
15.841007633755
 31
0.0
  0
LINE
  5
D7C
330
1F
100
AcDbEntity
  8
细实线层
100
AcDbLine
 10
276.7561453540075
 20
15.841007633755
 30
0.0
 11
276.7561453540075
 21
9.999999999998181
 31
0.0
  0
LINE
  5
D7D
330
1F
100
AcDbEntity
  8
细实线层
100
AcDbLine
 10
273.8686453540085
 20
12.92050381687659
 30
0.0
 11
280.4311453540085
 21
12.92050381687659
 31
0.0
  0
CIRCLE
  5
D7E
330
1F
100
AcDbEntity
  8
细实线层
100
AcDbCircle
 10
276.7561453540075
 20
12.92050381687659
 30
0.0
 40
2.187499999999943
  0
CIRCLE
  5
D7F
330
1F
100
AcDbEntity
  8
细实线层
100
AcDbCircle
 10
276.7561453540075
 20
12.92050381687659
 30
0.0
 40
0.6562499999999829
  0
LINE
  5
D80
330
1F
100
AcDbEntity
  8
3中心线层
 62
     7
 48
0.1
100
AcDbLine
 10
265.144564142629
 20
12.92050381687659
 30
0.0
 11
273.8686453540085
 21
12.92050381687659
 31
0.0
  0
LINE
  5
D81
330
1F
100
AcDbEntity
  8
3中心线层
 62
     7
100
AcDbLine
 10
266.2950959920181
 20
12.59237881687659
 30
0.0
 11
266.2950959920181
 21
13.24862881687386
 31
0.0
  0
LINE
  5
D82
330
1F
100
AcDbEntity
  8
3中心线层
 62
     7
100
AcDbLine
 10
272.4200959920181
 20
10.73300381687659
 30
0.0
 11
272.4200959920181
 21
15.10800381687477
 31
0.0
  0
LINE
  5
D83
330
1F
100
AcDbEntity
  8
细实线层
100
AcDbLine
 10
266.2950959920181
 20
13.24862881687386
 30
0.0
 11
272.4200959920181
 21
15.10800381687477
 31
0.0
  0
LINE
  5
D84
330
1F
100
AcDbEntity
  8
细实线层
100
AcDbLine
 10
266.2950959920181
 20
12.59237881687659
 30
0.0
 11
272.4200959920181
 21
10.73300381687659
 31
0.0
  0
LINE
  5
D85
330
1F
100
AcDbEntity
  8
粗实线层
100
AcDbLine
 10
182.0003469713993
 20
26.33333333332939
 30
0.0
 11
287.0
 21
26.33333333333303
 31
0.0
  0
LINE
  5
D86
330
1F
100
AcDbEntity
  8
粗实线层
100
AcDbLine
 10
182.0003469713993
 20
39.99999999999909
 30
0.0
 11
287.0
 21
40.0
 31
0.0
  0
MTEXT
  5
D87
330
1F
100
AcDbEntity
  8
6文字层
100
AcDbMText
 10
194.1794353788573
 20
21.13543729905632
 30
0.0
 40
2.5
 41
17.84855769230755
 71
     5
 72
     5
  1
{\fSimHei|b1|i0|c134|p49;名称 }
1001
ACDBBLOCKREPETAG
1000

1001
ACAD
1000
ACAD_MTEXT_DEFINED_HEIGHT_BEGIN
1070
    46
1040
4.283653846153733
1000
ACAD_MTEXT_DEFINED_HEIGHT_END
  0
MTEXT
  5
D88
330
1F
100
AcDbEntity
  8
6文字层
100
AcDbMText
 10
258.4247746021283
 20
33.3388339475614
 30
0.0
 40
3.0
 41
63.12269194006068
 71
     5
 72
     5
  1
{\fSimHei|b1|i0|c134|p49;联合光科技（北京）有限公司}
1001
ACDBBLOCKREPETAG
1000

1001
ACAD
1000
ACAD_MTEXT_DEFINED_HEIGHT_BEGIN
1070
    46
1040
3.808394365490182
1000
ACAD_MTEXT_DEFINED_HEIGHT_END
  0
MTEXT
  5
D89
330
1F
100
AcDbEntity
  8
6文字层
100
AcDbMText
 10
194.3732816028787
 20
12.98934071260373
 30
0.0
 40
2.5
 41
17.84855769230755
 71
     5
 72
     5
  1
{\fSimHei|b1|i0|c134|p49;产品编号} 
1001
ACDBBLOCKREPETAG
1000

1001
ACAD
1000
ACAD_MTEXT_DEFINED_HEIGHT_BEGIN
1070
    46
1040
4.283653846153733
1000
ACAD_MTEXT_DEFINED_HEIGHT_END
  0
MTEXT
  5
D8A
330
1F
100
AcDbEntity
  8
6文字层
100
AcDbMText
 10
253.431637469479
 20
13.14343400566213
 30
0.0
 40
2.5
 41
17.84855769230755
 71
     5
 72
     5
  1
{\fSimHei|b1|i0|c134|p49;mm }
1001
ACDBBLOCKREPETAG
1000

1001
ACAD
1000
ACAD_MTEXT_DEFINED_HEIGHT_BEGIN
1070
    46
1040
4.283653846153733
1000
ACAD_MTEXT_DEFINED_HEIGHT_END
  0
LINE
  5
D8B
330
1F
100
AcDbEntity
  8
粗实线层
100
AcDbLine
 10
182.0003469713993
 20
9.941096743267735
 30
0.0
 11
182.0003469713993
 21
39.94109674325682
 31
0.0
  0
LINE
  5
D8C
330
1F
100
AcDbEntity
  8
粗实线层
100
AcDbLine
 10
206.7603328645291
 20
9.999999999998181
 30
0.0
 11
206.7603328645291
 21
26.33333333332394
 31
0.0
  0
LINE
  5
D8D
330
1F
100
AcDbEntity
  8
粗实线层
100
AcDbLine
 10
229.6358957687498
 20
26.42852234707152
 30
0.0
 11
229.6358957687498
 21
40.0
 31
0.0
  0
LINE
  5
D8E
330
1F
100
AcDbEntity
  8
粗实线层
100
AcDbLine
 10
229.6358957687498
 20
9.999999999991815
 30
0.0
 11
229.6358957687389
 21
15.84100763374499
 31
0.0
  0
MTEXT
  5
D8F
330
1F
100
AcDbEntity
  8
6文字层
100
AcDbMText
 10
238.1972593395403
 20
12.82885780604101
 30
0.0
 40
2.5
 41
17.84855769230755
 71
     5
 72
     5
  1
{\fSimHei|b1|i0|c134|p49;单位}
1001
ACAD
1000
ACAD_MTEXT_DEFINED_HEIGHT_BEGIN
1070
    46
1040
3.291666666666666
1000
ACAD_MTEXT_DEFINED_HEIGHT_END
  0
LINE
  5
D90
330
1F
100
AcDbEntity
  8
粗实线层
100
AcDbLine
 10
246.7401531749383
 20
9.999999999998181
 30
0.0
 11
246.7401531749383
 21
15.84100763375227
 31
0.0
  0
LINE
  5
D91
330
1F
100
AcDbEntity
  8
粗实线层
100
AcDbLine
 10
259.3051658955483
 20
9.999999999998181
 30
0.0
 11
259.3051658955483
 21
15.84100763375227
 31
0.0
  0
LINE
  5
D92
330
1F
100
AcDbEntity
  8
0
100
AcDbLine
 10
287.0
 20
9.999999999998181
 30
0.0
 11
187.0
 21
9.999999999998181
 31
0.0
  0
HATCH
  5
D93
330
1F
100
AcDbEntity
  8
3中心线层
 62
     0
100
AcDbHatch
 10
0.0
 20
0.0
 30
0.0
210
0.0
220
0.0
230
1.0
  2
SOLID
 70
     1
 71
     0
 91
       14
 92
        5
 93
        5
 72
     4
 94
        3
 73
     0
 74
     0
 95
        8
 96
        4
 40
7.0
 40
7.0
 40
7.0
 40
7.0
 40
8.0
 40
8.0
 40
8.0
 40
8.0
 10
192.6618587974899
 20
36.25070197904824
 10
192.6618587974899
 20
37.06457350248093
 10
192.0020850279489
 20
37.72435081693493
 10
191.1882099595987
 20
37.72435081693493
 72
     4
 94
        3
 73
     0
 74
     0
 95
        8
 96
        4
 40
0.0
 40
0.0
 40
0.0
 40
0.0
 40
1.0
 40
1.0
 40
1.0
 40
1.0
 10
191.1882099595987
 20
37.72435081693493
 10
191.1882099595987
 20
37.72435081693493
 10
185.5392245201383
 20
37.72435081693493
 10
185.5392245201383
 20
37.72435081693493
 72
     4
 94
        3
 73
     0
 74
     0
 95
       11
 96
        7
 40
1.0
 40
1.0
 40
1.0
 40
1.0
 40
2.0
 40
2.0
 40
2.0
 40
3.0
 40
3.0
 40
3.0
 40
3.0
 10
185.5392245201383
 20
37.72435081693493
 10
184.7253529966983
 20
37.72435081693493
 10
184.0655792271573
 20
37.06457350248093
 10
184.0655792271573
 20
36.25070197904824
 10
184.0655792271573
 20
36.25070197904824
 10
184.0655792271573
 20
30.60171653959333
 10
184.0655792271573
 20
30.60171653959333
 72
     4
 94
        3
 73
     0
 74
     0
 95
       11
 96
        7
 40
3.0
 40
3.0
 40
3.0
 40
3.0
 40
4.0
 40
4.0
 40
4.0
 40
5.0
 40
5.0
 40
5.0
 40
5.0
 10
184.0655792271573
 20
30.60171653959333
 10
184.0655792271573
 20
29.78784147123315
 10
184.7253529966983
 20
29.128067701703
 10
185.5392245201383
 20
29.128067701703
 10
185.5392245201383
 20
29.128067701703
 10
191.1882099595987
 20
29.128067701703
 10
191.1882099595987
 20
29.128067701703
 72
     4
 94
        3
 73
     0
 74
     0
 95
       11
 96
        7
 40
5.0
 40
5.0
 40
5.0
 40
5.0
 40
6.0
 40
6.0
 40
6.0
 40
7.0
 40
7.0
 40
7.0
 40
7.0
 10
191.1882099595987
 20
29.128067701703
 10
192.0020850279489
 20
29.128067701703
 10
192.6618587974899
 20
29.78784147123315
 10
192.6618587974899
 20
30.60171653959333
 10
192.6618587974899
 20
30.60171653959333
 10
192.6618587974899
 20
36.25070197904824
 10
192.6618587974899
 20
36.25070197904824
 97
        0
 92
       20
 93
       12
 72
     4
 94
        3
 73
     0
 74
     0
 95
        8
 96
        4
 40
10.0
 40
10.0
 40
10.0
 40
10.0
 40
11.0
 40
11.0
 40
11.0
 40
11.0
 10
184.9252050572486
 20
33.4262074868584
 10
184.9252050572486
 20
35.32524340482541
 10
186.4647043638888
 20
36.86472144193522
 10
188.3637367369411
 20
36.86472144193522
 72
     4
 94
        3
 73
     0
 74
     0
 95
        8
 96
        4
 40
11.0
 40
11.0
 40
11.0
 40
11.0
 40
12.0
 40
12.0
 40
12.0
 40
12.0
 10
188.3637367369411
 20
36.86472144193522
 10
190.2627655650576
 20
36.86472144193522
 10
191.8022294224902
 20
35.32524340482541
 10
191.8022294224902
 20
33.4262074868584
 72
     4
 94
        3
 73
     0
 74
     0
 95
        8
 96
        4
 40
12.0
 40
12.0
 40
12.0
 40
12.0
 40
13.0
 40
13.0
 40
13.0
 40
13.0
 10
191.8022294224902
 20
33.4262074868584
 10
191.8022294224902
 20
31.52716802397026
 10
190.2627655650576
 20
29.98769353177613
 10
188.3637367369411
 20
29.98769353177613
 72
     4
 94
        3
 73
     0
 74
     0
 95
        8
 96
        4
 40
0.0
 40
0.0
 40
0.0
 40
0.0
 40
1.0
 40
1.0
 40
1.0
 40
1.0
 10
188.3637367369411
 20
29.98769353177613
 10
188.0946452623284
 20
29.98769353177613
 10
187.8332285435681
 20
30.01972899076281
 10
187.5820318345995
 20
30.07842580717261
 72
     4
 94
        3
 73
     0
 74
     0
 95
        8
 96
        4
 40
1.0
 40
1.0
 40
1.0
 40
1.0
 40
2.0
 40
2.0
 40
2.0
 40
2.0
 10
187.5820318345995
 20
30.07842580717261
 10
187.9056371177994
 20
30.29957575834487
 10
188.11810910022
 20
30.67139197904726
 10
188.11810910022
 20
31.09293281888768
 72
     4
 94
        3
 73
     0
 74
     0
 95
        8
 96
        4
 40
2.0
 40
2.0
 40
2.0
 40
2.0
 40
3.0
 40
3.0
 40
3.0
 40
3.0
 10
188.11810910022
 20
31.09293281888768
 10
188.11810910022
 20
31.183693453655
 10
188.1079706236596
 20
31.27204354154401
 10
188.0892888853687
 20
31.357196109906
 72
     4
 94
        3
 73
     0
 74
     0
 95
        8
 96
        4
 40
3.0
 40
3.0
 40
3.0
 40
3.0
 40
4.0
 40
4.0
 40
4.0
 40
4.0
 10
188.0892888853687
 20
31.357196109906
 10
188.1791420201389
 20
31.34529226225004
 10
188.2706222740489
 20
31.33853918607656
 10
188.3637296470988
 20
31.33853918607656
 72
     4
 94
        3
 73
     0
 74
     0
 95
        8
 96
        4
 40
4.0
 40
4.0
 40
4.0
 40
4.0
 40
5.0
 40
5.0
 40
5.0
 40
5.0
 10
188.3637296470988
 20
31.33853918607656
 10
189.5167119420094
 20
31.33853918607656
 10
190.4513873131073
 20
32.27321810209014
 10
190.4513873131073
 20
33.4262074868584
 72
     4
 94
        3
 73
     0
 74
     0
 95
       11
 96
        7
 40
5.0
 40
5.0
 40
5.0
 40
5.0
 40
6.0
 40
6.0
 40
6.0
 40
7.0
 40
7.0
 40
7.0
 40
7.0
 10
190.4513873131073
 20
33.4262074868584
 10
190.4513873131073
 20
34.57919332670099
 10
189.5167119420094
 20
35.51387578763661
 10
188.3637296470988
 20
35.51387578763661
 10
187.2107473521701
 20
35.51387578763661
 10
186.2760507115399
 20
34.57919332670099
 10
186.2760507115399
 20
33.4262074868584
 72
     4
 94
        3
 73
     0
 74
     0
 95
        8
 96
        4
 40
7.0
 40
7.0
 40
7.0
 40
7.0
 40
8.0
 40
8.0
 40
8.0
 40
8.0
 10
186.2760507115399
 20
33.4262074868584
 10
186.2760507115399
 20
33.0067297915466
 10
186.4001158873289
 20
32.61639135404675
 10
186.6130664341981
 20
32.28921278959024
 72
     4
 94
        3
 73
     0
 74
     0
 95
        8
 96
        4
 40
8.0
 40
8.0
 40
8.0
 40
8.0
 40
9.0
 40
9.0
 40
9.0
 40
9.0
 10
186.6130664341981
 20
32.28921278959024
 10
186.1285606920083
 20
32.1774449477989
 10
185.7536143053003
 20
31.77934667631143
 10
185.6766292369284
 20
31.2824620669353
 72
     4
 94
        3
 73
     0
 74
     0
 95
        8
 96
        4
 40
9.0
 40
9.0
 40
9.0
 40
9.0
 40
10.0
 40
10.0
 40
10.0
 40
10.0
 10
185.6766292369284
 20
31.2824620669353
 10
185.2068420103788
 20
31.87036609037659
 10
184.9252050572486
 20
32.61513645170271
 10
184.9252050572486
 20
33.4262074868584
 97
        0
 92
       20
 93
        1
 72
     4
 94
        3
 73
     0
 74
     0
 95
       17
 96
       13
 40
0.0
 40
0.0
 40
0.0
 40
0.0
 40
1.0
 40
1.0
 40
1.0
 40
2.0
 40
2.0
 40
2.0
 40
3.0
 40
3.0
 40
3.0
 40
4.0
 40
4.0
 40
4.0
 40
4.0
 10
186.7672669908388
 20
33.4262074868584
 10
186.7672669908388
 20
34.30790400053138
 10
187.4820331334267
 20
35.02266305326521
 10
188.3637261021777
 20
35.02266305326521
 10
189.2454190709195
 20
35.02266305326521
 10
189.9601710338084
 20
34.30790400053138
 10
189.9601710338084
 20
33.4262074868584
 10
189.9601710338084
 20
32.54451097318542
 10
189.2454190709195
 20
31.82975546537637
 10
188.3637261021777
 20
31.82975546537637
 10
187.4820331334267
 20
31.82975546537637
 10
186.7672669908388
 20
32.54451097318542
 10
186.7672669908388
 20
33.4262074868584
 97
        0
 92
       20
 93
        3
 72
     4
 94
        3
 73
     0
 74
     0
 95
       11
 96
        7
 40
1.0
 40
1.0
 40
1.0
 40
1.0
 40
2.0
 40
2.0
 40
2.0
 40
3.0
 40
3.0
 40
3.0
 40
3.0
 10
186.0304407994408
 20
31.09293281888768
 10
186.0304407994408
 20
31.56769002592137
 10
186.415316512328
 20
31.95255864897081
 10
186.890073719358
 20
31.95255864897081
 10
187.364830926399
 20
31.95255864897081
 10
187.7496960045082
 20
31.56769002592137
 10
187.7496960045082
 20
31.09293281888768
 72
     4
 94
        3
 73
     0
 74
     0
 95
        8
 96
        4
 40
3.0
 40
3.0
 40
3.0
 40
3.0
 40
4.0
 40
4.0
 40
4.0
 40
4.0
 10
187.7496960045082
 20
31.09293281888768
 10
187.7496960045082
 20
30.61817206693831
 10
187.364830926399
 20
30.2333034438916
 10
186.890073719358
 20
30.2333034438916
 72
     4
 94
        3
 73
     0
 74
     0
 95
        8
 96
        4
 40
0.0
 40
0.0
 40
0.0
 40
0.0
 40
1.0
 40
1.0
 40
1.0
 40
1.0
 10
186.890073719358
 20
30.2333034438916
 10
186.415316512328
 20
30.2333034438916
 10
186.0304407994408
 20
30.61817206693831
 10
186.0304407994408
 20
31.09293281888768
 97
        0
 92
        5
 93
       33
 72
     4
 94
        3
 73
     0
 74
     0
 95
       11
 96
        7
 40
5.0
 40
5.0
 40
5.0
 40
5.0
 40
6.0
 40
6.0
 40
6.0
 40
7.0
 40
7.0
 40
7.0
 40
7.0
 10
197.4327506761892
 20
34.32502693008155
 10
197.4327506761892
 20
34.32502693008155
 10
198.2561444363273
 20
34.32502693008155
 10
198.2561444363273
 20
34.32502693008155
 10
198.1278935863393
 20
35.43518281976503
 10
197.2437450432899
 20
36.0075006624802
 10
196.1908979454383
 20
36.0075006624802
 72
     4
 94
        3
 73
     0
 74
     0
 95
        8
 96
        4
 40
4.0
 40
4.0
 40
4.0
 40
4.0
 40
5.0
 40
5.0
 40
5.0
 40
5.0
 10
196.1908979454383
 20
36.0075006624802
 10
194.746598626356
 20
36.0075006624802
 10
193.8827155485687
 20
34.83527263742235
 10
193.8827155485687
 20
33.42861601341701
 72
     4
 94
        3
 73
     0
 74
     0
 95
        8
 96
        4
 40
3.0
 40
3.0
 40
3.0
 40
3.0
 40
4.0
 40
4.0
 40
4.0
 40
4.0
 10
193.8827155485687
 20
33.42861601341701
 10
193.8827155485687
 20
32.02193813182384
 10
194.746598626356
 20
30.84973136434746
 10
196.1908979454383
 20
30.84973136434746
 72
     4
 94
        3
 73
     0
 74
     0
 95
        8
 96
        4
 40
2.0
 40
2.0
 40
2.0
 40
2.0
 40
3.0
 40
3.0
 40
3.0
 40
3.0
 10
196.1908979454383
 20
30.84973136434746
 10
196.7780554708497
 20
30.84973136434746
 10
197.1897731573572
 20
31.02210908549841
 10
197.6419385486497
 20
31.54617222023535
 72
     4
 94
        3
 73
     0
 74
     0
 95
       11
 96
        7
 40
0.5
 40
0.5
 40
0.5
 40
0.5
 40
1.5
 40
1.5
 40
1.5
 40
2.0
 40
2.0
 40
2.0
 40
2.0
 10
197.6419385486497
 20
31.54617222023535
 10
197.6419385486497
 20
31.54617222023535
 10
197.7701893986396
 20
30.96694566382303
 10
197.7701893986396
 20
30.96694566382303
 10
197.7701893986396
 20
30.96694566382303
 10
197.9051711295469
 20
30.96694566382303
 10
198.040152860458
 20
30.96694566382303
 72
     4
 94
        3
 73
     0
 74
     0
 95
       11
 96
        7
 40
14.749965
 40
14.749965
 40
14.749965
 40
14.749965
 40
15.249965
 40
15.249965
 40
15.249965
 40
15.5
 40
15.5
 40
15.5
 40
15.5
 10
198.040152860458
 20
30.96694566382303
 10
198.175134591349
 20
30.96694566382303
 10
198.3101163222473
 20
30.96694566382303
 10
198.3101163222473
 20
30.96694566382303
 10
198.3101163222473
 20
30.96694566382303
 10
198.3101163222473
 20
31.12903359009397
 10
198.3101163222473
 20
31.37215413333979
 72
     4
 94
        3
 73
     0
 74
     0
 95
        8
 96
        4
 40
14.49997
 40
14.49997
 40
14.49997
 40
14.49997
 40
14.749965
 40
14.749965
 40
14.749965
 40
14.749965
 10
198.3101163222473
 20
31.37215413333979
 10
198.3101163222473
 20
31.61523578275319
 10
198.3101163222473
 20
31.93932412440699
 10
198.3101163222473
 20
32.26340274389622
 72
     4
 94
        3
 73
     0
 74
     0
 95
        8
 96
        4
 40
14.3749725
 40
14.3749725
 40
14.3749725
 40
14.3749725
 40
14.49997
 40
14.49997
 40
14.49997
 40
14.49997
 10
198.3101163222473
 20
32.26340274389622
 10
198.3101163222473
 20
32.42544205364266
 10
198.3101163222473
 20
32.58747893285272
 10
198.3101163222473
 20
32.73938632971203
 72
     4
 94
        3
 73
     0
 74
     0
 95
        8
 96
        4
 40
14.18747625
 40
14.18747625
 40
14.18747625
 40
14.18747625
 40
14.3749725
 40
14.3749725
 40
14.3749725
 40
14.3749725
 10
198.3101163222473
 20
32.73938632971203
 10
198.3101163222473
 20
32.96724742500464
 10
198.3101163222473
 20
33.17231718502717
 10
198.3101163222473
 20
33.32041680994917
 72
     4
 94
        3
 73
     0
 74
     0
 95
        8
 96
        4
 40
14.1249775
 40
14.1249775
 40
14.1249775
 40
14.1249775
 40
14.18747625
 40
14.18747625
 40
14.18747625
 40
14.18747625
 10
198.3101163222473
 20
33.32041680994917
 10
198.3101163222473
 20
33.36978335159347
 10
198.3101163222473
 20
33.41281987822549
 10
198.3101163222473
 20
33.44826050836582
 72
     4
 94
        3
 73
     0
 74
     0
 95
        8
 96
        4
 40
14.093728125
 40
14.093728125
 40
14.093728125
 40
14.093728125
 40
14.1249775
 40
14.1249775
 40
14.1249775
 40
14.1249775
 10
198.3101163222473
 20
33.44826050836582
 10
198.3101163222473
 20
33.46598082344099
 10
198.3101163222473
 20
33.48180216438595
 10
198.3101163222473
 20
33.49556629603558
 72
     4
 94
        3
 73
     0
 74
     0
 95
        8
 96
        4
 40
14.06247875
 40
14.06247875
 40
14.06247875
 40
14.06247875
 40
14.093728125
 40
14.093728125
 40
14.093728125
 40
14.093728125
 10
198.3101163222473
 20
33.49556629603558
 10
198.3101163222473
 20
33.5093304276761
 10
198.3101163222473
 20
33.52103735001583
 10
198.3101163222473
 20
33.53052882786415
 72
     4
 94
        3
 73
     0
 74
     0
 95
       11
 96
        7
 40
13.99997958222998
 40
13.99997958222998
 40
13.99997958222998
 40
13.99997958222998
 40
14.0
 40
14.0
 40
14.0
 40
14.00071240722656
 40
14.00071240722656
 40
14.00071240722656
 40
14.00071240722656
 10
198.3101163196898
 20
33.55962648270179
 10
198.3101163213978
 20
33.55962648270179
 10
198.3101163222473
 20
33.55962648270179
 10
198.3101163222473
 20
33.55962648270179
 10
198.3101163222473
 20
33.55962648270179
 10
198.3101163222473
 20
33.5596251668585
 10
198.3101163222473
 20
33.55962253703728
 72
     4
 94
        3
 73
     0
 74
     0
 95
        8
 96
        4
 40
13.49999
 40
13.49999
 40
13.49999
 40
13.49999
 40
13.99997958222998
 40
13.99997958222998
 40
13.99997958222998
 40
13.99997958222998
 10
198.3101163196898
 20
33.55962648270179
 10
198.310074429819
 20
33.55962648270179
 10
197.7971442815888
 20
33.55962648270179
 10
197.2842243915402
 20
33.55962648270179
 72
     4
 94
        3
 73
     0
 74
     0
 95
       11
 96
        7
 40
12.99902343580856
 40
12.99902343580856
 40
12.99902343580856
 40
12.99902343580856
 40
13.49901343580856
 40
13.49901343580856
 40
13.49901343580856
 40
13.49999
 40
13.49999
 40
13.49999
 40
13.49999
 10
197.2842243915402
 20
33.55962648270179
 10
196.7713040729195
 20
33.55962648270179
 10
196.2583940124987
 20
33.55962648270179
 10
196.2583940124987
 20
33.55962648270179
 10
196.2583940124987
 20
33.55962648270179
 10
196.2583940124987
 20
33.55962585797351
 10
196.2583940124987
 20
33.55962460973387
 72
     4
 94
        3
 73
     0
 74
     0
 95
        8
 96
        4
 40
12.906251875
 40
12.906251875
 40
12.906251875
 40
12.906251875
 40
12.93750125
 40
12.93750125
 40
12.93750125
 40
12.93750125
 10
196.2583940124987
 20
33.55226998693524
 10
196.2583940124987
 20
33.54987112850631
 10
196.2583940124987
 20
33.54691253559486
 10
196.2583940124987
 20
33.54343418830922
 72
     4
 94
        3
 73
     0
 74
     0
 95
        8
 96
        4
 40
12.81250375
 40
12.81250375
 40
12.81250375
 40
12.81250375
 40
12.8750024998249
 40
12.8750024998249
 40
12.8750024998249
 40
12.8750024998249
 10
196.2583940124987
 20
33.53147986342901
 10
196.2583940124987
 20
33.52252411166319
 10
196.2583940124987
 20
33.5116492629295
 10
196.2583940124987
 20
33.49917515820289
 72
     4
 94
        3
 73
     0
 74
     0
 95
        8
 96
        4
 40
12.75000499991749
 40
12.75000499991749
 40
12.75000499991749
 40
12.75000499991749
 40
12.81250375
 40
12.81250375
 40
12.81250375
 40
12.81250375
 10
196.2583940124987
 20
33.49917515820289
 10
196.2583940124987
 20
33.48670105341716
 10
196.2583940124987
 20
33.47262769262124
 10
196.2583940124987
 20
33.45727491677917
 72
     4
 94
        3
 73
     0
 74
     0
 95
        8
 96
        4
 40
12.6250075
 40
12.6250075
 40
12.6250075
 40
12.6250075
 40
12.75000499991749
 40
12.75000499991749
 40
12.75000499991749
 40
12.75000499991749
 10
196.2583940124987
 20
33.45727491677917
 10
196.2583940124987
 20
33.42656936515232
 10
196.2583940124987
 20
33.39074615335994
 10
196.2583940124987
 20
33.35236400913072
 72
     4
 94
        3
 73
     0
 74
     0
 95
        8
 96
        4
 40
12.50000999999212
 40
12.50000999999212
 40
12.50000999999212
 40
12.50000999999212
 40
12.6250075
 40
12.6250075
 40
12.6250075
 40
12.6250075
 10
196.2583940124987
 20
33.35236400913072
 10
196.2583940124987
 20
33.31398186487695
 10
196.2583940124987
 20
33.27304078819088
 10
196.2583940124987
 20
33.23209950678574
 72
     4
 94
        3
 73
     0
 74
     0
 95
        8
 96
        4
 40
12.250015
 40
12.250015
 40
12.250015
 40
12.250015
 40
12.50000999999212
 40
12.50000999999212
 40
12.50000999999212
 40
12.50000999999212
 10
196.2583940124987
 20
33.23209950678574
 10
196.2583940124987
 20
33.15021694400366
 10
196.2583940124987
 20
33.06833356241077
 10
196.2583940124987
 20
33.00691918389657
 72
     4
 94
        3
 73
     0
 74
     0
 95
       11
 96
        7
 40
11.99928759277344
 40
11.99928759277344
 40
11.99928759277344
 40
11.99928759277344
 40
12.24930259277344
 40
12.24930259277344
 40
12.24930259277344
 40
12.250015
 40
12.250015
 40
12.250015
 40
12.250015
 10
196.2583940124987
 20
33.00691918389657
 10
196.2583940124987
 20
32.94549989213374
 10
196.2583940124987
 20
32.9045528786819
 10
196.2583940124987
 20
32.9045528786819
 10
196.2583940124987
 20
32.9045528786819
 10
196.2583946633076
 20
32.9045528786819
 10
196.2583959640269
 20
32.9045528786819
 72
     4
 94
        3
 73
     0
 74
     0
 95
        8
 96
        4
 40
11.906271875
 40
11.906271875
 40
11.906271875
 40
11.906271875
 40
11.93752124974706
 40
11.93752124974706
 40
11.93752124974706
 40
11.93752124974706
 10
196.2727857364407
 20
32.9045528786819
 10
196.2774802290987
 20
32.9045528786819
 10
196.2832704823995
 20
32.9045528786819
 10
196.290078233098
 20
32.9045528786819
 72
     4
 94
        3
 73
     0
 74
     0
 95
        8
 96
        4
 40
11.8750225
 40
11.8750225
 40
11.8750225
 40
11.8750225
 40
11.906271875
 40
11.906271875
 40
11.906271875
 40
11.906271875
 10
196.290078233098
 20
32.9045528786819
 10
196.2968859838275
 20
32.9045528786819
 10
196.30471123198
 20
32.9045528786819
 10
196.3134757142689
 20
32.9045528786819
 72
     4
 94
        3
 73
     0
 74
     0
 95
        8
 96
        4
 40
11.81252375
 40
11.81252375
 40
11.81252375
 40
11.81252375
 40
11.8750225
 40
11.8750225
 40
11.8750225
 40
11.8750225
 10
196.3134757142689
 20
32.9045528786819
 10
196.3310046788501
 20
32.9045528786819
 10
196.3522905800291
 20
32.9045528786819
 10
196.3767073118088
 20
32.9045528786819
 72
     4
 94
        3
 73
     0
 74
     0
 95
        8
 96
        4
 40
11.75002499995332
 40
11.75002499995332
 40
11.75002499995332
 40
11.75002499995332
 40
11.81252375
 40
11.81252375
 40
11.81252375
 40
11.81252375
 10
196.3767073118088
 20
32.9045528786819
 10
196.4011240436084
 20
32.9045528786819
 10
196.4286716059978
 20
32.9045528786819
 10
196.4587238929689
 20
32.9045528786819
 72
     4
 94
        3
 73
     0
 74
     0
 95
        8
 96
        4
 40
11.6250275
 40
11.6250275
 40
11.6250275
 40
11.6250275
 40
11.75002499995332
 40
11.75002499995332
 40
11.75002499995332
 40
11.75002499995332
 10
196.4587238929689
 20
32.9045528786819
 10
196.5188284668402
 20
32.9045528786819
 10
196.5889519390075
 20
32.9045528786819
 10
196.6640854614179
 20
32.9045528786819
 72
     4
 94
        3
 73
     0
 74
     0
 95
        8
 96
        4
 40
11.50003
 40
11.50003
 40
11.50003
 40
11.50003
 40
11.6250275
 40
11.6250275
 40
11.6250275
 40
11.6250275
 10
196.6640854614179
 20
32.9045528786819
 10
196.7392189838502
 20
32.9045528786819
 10
196.8193625565091
 20
32.9045528786819
 10
196.8995073313272
 20
32.9045528786819
 72
     4
 94
        3
 73
     0
 74
     0
 95
        8
 96
        4
 40
11.250035
 40
11.250035
 40
11.250035
 40
11.250035
 40
11.50003
 40
11.50003
 40
11.50003
 40
11.50003
 10
196.8995073313272
 20
32.9045528786819
 10
197.0597968809398
 20
32.9045528786819
 10
197.220091239149
 20
32.9045528786819
 10
197.3403196212785
 20
32.9045528786819
 72
     4
 94
        3
 73
     0
 74
     0
 95
       11
 96
        7
 40
10.0
 40
10.0
 40
10.0
 40
10.0
 40
10.250035
 40
10.250035
 40
10.250035
 40
11.250035
 40
11.250035
 40
11.250035
 40
11.250035
 10
197.3403196212785
 20
32.9045528786819
 10
197.4605672403395
 20
32.9045528786819
 10
197.5407360609206
 20
32.9045528786819
 10
197.5407360609206
 20
32.9045528786819
 10
197.5272118797893
 20
32.07021409738627
 10
197.0547810232383
 20
31.53926350653728
 10
196.1908979454383
 20
31.55305967635013
 72
     4
 94
        3
 73
     0
 74
     0
 95
        8
 96
        4
 40
9.0
 40
9.0
 40
9.0
 40
9.0
 40
10.0
 40
10.0
 40
10.0
 40
10.0
 10
196.1908979454383
 20
31.55305967635013
 10
195.1583163128489
 20
31.55305967635013
 10
194.7263747739689
 20
32.48392913118823
 10
194.7263747739689
 20
33.42861601341701
 72
     4
 94
        3
 73
     0
 74
     0
 95
        8
 96
        4
 40
8.0
 40
8.0
 40
8.0
 40
8.0
 40
9.0
 40
9.0
 40
9.0
 40
9.0
 10
194.7263747739689
 20
33.42861601341701
 10
194.7263747739689
 20
34.37328163806797
 10
195.1583163128489
 20
35.30417235047662
 10
196.1908979454383
 20
35.30417235047662
 72
     4
 94
        3
 73
     0
 74
     0
 95
        8
 96
        4
 40
7.0
 40
7.0
 40
7.0
 40
7.0
 40
8.0
 40
8.0
 40
8.0
 40
8.0
 10
196.1908979454383
 20
35.30417235047662
 10
196.7983209361282
 20
35.30417235047662
 10
197.3517304280067
 20
34.97319182040883
 10
197.4327506761892
 20
34.32502693008155
 97
        0
 92
        5
 93
        8
 72
     4
 94
        3
 73
     0
 74
     0
 95
       11
 96
        7
 40
0.5
 40
0.5
 40
0.5
 40
0.5
 40
1.5
 40
1.5
 40
1.5
 40
2.0
 40
2.0
 40
2.0
 40
2.0
 10
199.5447570417182
 20
33.01937972961241
 10
199.5447570417182
 20
33.01937972961241
 10
199.5447570417182
 20
35.88469663157503
 10
199.5447570417182
 20
35.88469663157503
 10
199.5447570417182
 20
35.88469663157503
 10
199.3283343781968
 20
35.88469663157503
 10
199.1119117146773
 20
35.88469663157503
 72
     4
 94
        3
 73
     0
 74
     0
 95
       11
 96
        7
 40
9.5
 40
9.5
 40
9.5
 40
9.5
 40
10.0
 40
10.0
 40
10.0
 40
10.5
 40
10.5
 40
10.5
 40
10.5
 10
199.1119117146773
 20
35.88469663157503
 10
198.8954890511486
 20
35.88469663157503
 10
198.6790663876382
 20
35.88469663157503
 10
198.6790663876382
 20
35.88469663157503
 10
198.6790663876382
 20
35.88469663157503
 10
198.6790663876382
 20
35.0977643328697
 10
198.6790663876382
 20
34.31083203416983
 72
     4
 94
        3
 73
     0
 74
     0
 95
       11
 96
        7
 40
8.0
 40
8.0
 40
8.0
 40
8.0
 40
8.5
 40
8.5
 40
8.5
 40
9.5
 40
9.5
 40
9.5
 40
9.5
 10
198.6790663876382
 20
34.31083203416983
 10
198.6790663876382
 20
33.52389973546906
 10
198.6790663876382
 20
32.73696743676646
 10
198.6790663876382
 20
32.73696743676646
 10
198.6790663876382
 20
31.47651678240345
 10
199.4893729950381
 20
30.84973136434746
 10
200.7082917402076
 20
30.84973136434746
 72
     4
 94
        3
 73
     0
 74
     0
 95
        8
 96
        4
 40
7.0
 40
7.0
 40
7.0
 40
7.0
 40
8.0
 40
8.0
 40
8.0
 40
8.0
 10
200.7082917402076
 20
30.84973136434746
 10
201.9272104853681
 20
30.84973136434746
 10
202.737517092768
 20
31.47651678240345
 10
202.737517092768
 20
32.73696743676646
 72
     4
 94
        3
 73
     0
 74
     0
 95
       11
 96
        7
 40
5.5
 40
5.5
 40
5.5
 40
5.5
 40
6.5
 40
6.5
 40
6.5
 40
7.0
 40
7.0
 40
7.0
 40
7.0
 10
202.737517092768
 20
32.73696743676646
 10
202.737517092768
 20
32.73696743676646
 10
202.737517092768
 20
35.88469663157503
 10
202.737517092768
 20
35.88469663157503
 10
202.737517092768
 20
35.88469663157503
 10
202.521083753827
 20
35.88469663157503
 10
202.3046504148988
 20
35.88469663157503
 72
     4
 94
        3
 73
     0
 74
     0
 95
       11
 96
        7
 40
4.5
 40
4.5
 40
4.5
 40
4.5
 40
5.0
 40
5.0
 40
5.0
 40
5.5
 40
5.5
 40
5.5
 40
5.5
 10
202.3046504148988
 20
35.88469663157503
 10
202.0882170759596
 20
35.88469663157503
 10
201.8717837370277
 20
35.88469663157503
 10
201.8717837370277
 20
35.88469663157503
 10
201.8717837370277
 20
35.88469663157503
 10
201.8717837370277
 20
35.16836740608323
 10
201.8717837370277
 20
34.45203818059144
 72
     4
 94
        3
 73
     0
 74
     0
 95
       11
 96
        7
 40
3.0
 40
3.0
 40
3.0
 40
3.0
 40
3.5
 40
3.5
 40
3.5
 40
4.5
 40
4.5
 40
4.5
 40
4.5
 10
201.8717837370277
 20
34.45203818059144
 10
201.8717837370277
 20
33.73570895510056
 10
201.8717837370277
 20
33.01937972961241
 10
201.8717837370277
 20
33.01937972961241
 10
201.8717837370277
 20
32.35815275223649
 10
201.8302350266076
 20
31.5936010968926
 10
200.7082917402076
 20
31.5936010968926
 72
     4
 94
        3
 73
     0
 74
     0
 95
        8
 96
        4
 40
2.0
 40
2.0
 40
2.0
 40
2.0
 40
3.0
 40
3.0
 40
3.0
 40
3.0
 10
200.7082917402076
 20
31.5936010968926
 10
199.5863057521383
 20
31.5936010968926
 10
199.5447570417182
 20
32.35815275223649
 10
199.5447570417182
 20
33.01937972961241
 97
        0
 92
        5
 93
        1
 72
     4
 94
        3
 73
     0
 74
     0
 95
       17
 96
       13
 40
0.0
 40
0.0
 40
0.0
 40
0.0
 40
1.0
 40
1.0
 40
1.0
 40
2.0
 40
2.0
 40
2.0
 40
3.0
 40
3.0
 40
3.0
 40
4.0
 40
4.0
 40
4.0
 40
4.0
 10
208.8866848314883
 20
33.42205313907289
 10
208.8866848314883
 20
32.02225724819073
 10
208.0121345599382
 20
30.85578535162767
 10
206.550001090558
 20
30.85578535162767
 10
205.0878676211778
 20
30.85578535162767
 10
204.2133173496277
 20
32.02225724819073
 10
204.2133173496277
 20
33.42205313907289
 10
204.2133173496277
 20
34.82182787638067
 10
205.0878676211778
 20
35.98832092652083
 10
206.550001090558
 20
35.98832092652083
 10
208.0121345599382
 20
35.98832092652083
 10
208.8866848314883
 20
34.82182787638067
 10
208.8866848314883
 20
33.42205313907289
 97
        0
 92
       20
 93
        4
 72
     4
 94
        3
 73
     0
 74
     0
 95
        8
 96
        4
 40
2.0
 40
2.0
 40
2.0
 40
2.0
 40
3.0
 40
3.0
 40
3.0
 40
3.0
 10
206.550001090558
 20
35.28843355787103
 10
207.5953751265879
 20
35.28843355787103
 10
208.0326502623702
 20
34.36209710859657
 10
208.0326502623702
 20
33.42205313907289
 72
     4
 94
        3
 73
     0
 74
     0
 95
        8
 96
        4
 40
1.0
 40
1.0
 40
1.0
 40
1.0
 40
2.0
 40
2.0
 40
2.0
 40
2.0
 10
208.0326502623702
 20
33.42205313907289
 10
208.0326502623702
 20
32.48198801597391
 10
207.5953751265879
 20
31.55567272028384
 10
206.550001090558
 20
31.55567272028384
 72
     4
 94
        3
 73
     0
 74
     0
 95
        8
 96
        4
 40
0.0
 40
0.0
 40
0.0
 40
0.0
 40
1.0
 40
1.0
 40
1.0
 40
1.0
 10
206.550001090558
 20
31.55567272028384
 10
205.5046691812204
 20
31.55567272028384
 10
205.067394045449
 20
32.48198801597391
 10
205.067394045449
 20
33.42205313907289
 72
     4
 94
        3
 73
     0
 74
     0
 95
        8
 96
        4
 40
3.0
 40
3.0
 40
3.0
 40
3.0
 40
4.0
 40
4.0
 40
4.0
 40
4.0
 10
205.067394045449
 20
33.42205313907289
 10
205.067394045449
 20
34.36209710859657
 10
205.5046691812204
 20
35.28843355787103
 10
206.550001090558
 20
35.28843355787103
 97
        0
 92
        5
 93
       31
 72
     4
 94
        3
 73
     0
 74
     0
 95
        8
 96
        4
 40
1.0
 40
1.0
 40
1.0
 40
1.0
 40
2.0
 40
2.0
 40
2.0
 40
2.0
 10
213.0681188951185
 20
34.41104720021303
 10
213.0681188951185
 20
35.05395337570008
 10
212.8016692284073
 20
36.0075006624802
 10
211.4078320548888
 20
36.0075006624802
 72
     4
 94
        3
 73
     0
 74
     0
 95
       11
 96
        7
 40
6.749964999999998
 40
6.749964999999998
 40
6.749964999999998
 40
6.749964999999998
 40
7.749964999999998
 40
7.749964999999998
 40
7.749964999999998
 40
8.0
 40
8.0
 40
8.0
 40
8.0
 10
211.4078320548888
 20
36.0075006624802
 10
211.4078320548888
 20
36.0075006624802
 10
209.2556348971284
 20
36.0075006624802
 10
209.2556348971284
 20
36.0075006624802
 10
209.2556348971284
 20
36.0075006624802
 10
209.2556348971284
 20
35.68504981406295
 10
209.2556348971284
 20
35.20139611300328
 72
     4
 94
        3
 73
     0
 74
     0
 95
        8
 96
        4
 40
6.499969999999998
 40
6.499969999999998
 40
6.499969999999998
 40
6.499969999999998
 40
6.749964999999998
 40
6.749964999999998
 40
6.749964999999998
 40
6.749964999999998
 10
209.2556348971284
 20
35.20139611300328
 10
209.2556348971284
 20
34.71781978570198
 10
209.2556348971284
 20
34.07309217931743
 10
209.2556348971284
 20
33.42838391379792
 72
     4
 94
        3
 73
     0
 74
     0
 95
        8
 96
        4
 40
6.3749725
 40
6.3749725
 40
6.3749725
 40
6.3749725
 40
6.499969999999998
 40
6.499969999999998
 40
6.499969999999998
 40
6.499969999999998
 10
209.2556348971284
 20
33.42838391379792
 10
209.2556348971284
 20
33.10602978103816
 10
209.2556348971284
 20
32.78368048348875
 10
209.2556348971284
 20
32.48148234865494
 72
     4
 94
        3
 73
     0
 74
     0
 95
        8
 96
        4
 40
6.249974999999997
 40
6.249974999999997
 40
6.249974999999997
 40
6.249974999999997
 40
6.374972499999997
 40
6.374972499999997
 40
6.374972499999997
 40
6.374972499999997
 10
209.2556348971284
 20
32.48148234865494
 10
209.2556348971284
 20
32.17928421381566
 10
209.2556348971284
 20
31.8972372416838
 10
209.2556348971284
 20
31.65548775975458
 72
     4
 94
        3
 73
     0
 74
     0
 95
        8
 96
        4
 40
6.187476249999998
 40
6.187476249999998
 40
6.187476249999998
 40
6.187476249999998
 40
6.249974999999999
 40
6.249974999999999
 40
6.249974999999999
 40
6.249974999999999
 10
209.2556348971284
 20
31.65548775975458
 10
209.2556348971284
 20
31.53461301879088
 10
209.2556348971284
 20
31.42381265037966
 10
209.2556348971284
 20
31.32560494544668
 72
     4
 94
        3
 73
     0
 74
     0
 95
        8
 96
        4
 40
6.124977499999999
 40
6.124977499999999
 40
6.124977499999999
 40
6.124977499999999
 40
6.187476249999998
 40
6.187476249999998
 40
6.187476249999998
 40
6.187476249999998
 10
209.2556348971284
 20
31.32560494544668
 10
209.2556348971284
 20
31.22739724051917
 10
209.2556348971284
 20
31.14178219908081
 10
209.2556348971284
 20
31.07127811206192
 72
     4
 94
        3
 73
     0
 74
     0
 95
        8
 96
        4
 40
6.093728125
 40
6.093728125
 40
6.093728125
 40
6.093728125
 40
6.124977499999999
 40
6.124977499999999
 40
6.124977499999999
 40
6.124977499999999
 10
209.2556348971284
 20
31.07127811206192
 10
209.2556348971284
 20
31.03602606855475
 10
209.2556348971284
 20
31.00455176364994
 10
209.2556348971284
 20
30.97716998372471
 72
     4
 94
        3
 73
     0
 74
     0
 95
        8
 96
        4
 40
6.06247875
 40
6.06247875
 40
6.06247875
 40
6.06247875
 40
6.093728125
 40
6.093728125
 40
6.093728125
 40
6.093728125
 10
209.2556348971284
 20
30.97716998372471
 10
209.2556348971284
 20
30.94978820379674
 10
209.2556348971284
 20
30.92649894883652
 10
209.2556348971284
 20
30.90761700522216
 72
     4
 94
        3
 73
     0
 74
     0
 95
        8
 96
        4
 40
6.046854062499998
 40
6.046854062499998
 40
6.046854062499998
 40
6.046854062499998
 40
6.062478749999998
 40
6.062478749999998
 40
6.062478749999998
 40
6.062478749999998
 10
209.2556348971284
 20
30.90761700522216
 10
209.2556348971284
 20
30.89817603341544
 10
209.2556348971284
 20
30.88983688943881
 10
209.2556348971284
 20
30.88263892160012
 72
     4
 94
        3
 73
     0
 74
     0
 95
        8
 96
        4
 40
6.031229375000001
 40
6.031229375000001
 40
6.031229375000001
 40
6.031229375000001
 40
6.046854062500001
 40
6.046854062500001
 40
6.046854062500001
 40
6.046854062500001
 10
209.2556348971284
 20
30.88263892160012
 10
209.2556348971284
 20
30.87544095375597
 10
209.2556348971284
 20
30.86938416204339
 10
209.2556348971284
 20
30.86450789475475
 72
     4
 94
        3
 73
     0
 74
     0
 95
       11
 96
        7
 40
5.999979147302425
 40
5.999979147302425
 40
5.999979147302425
 40
5.999979147302425
 40
6.0
 40
6.0
 40
6.0
 40
6.000468271484374
 40
6.000468271484374
 40
6.000468271484374
 40
6.000468271484374
 10
209.2556348982398
 20
30.84973136434746
 10
209.2556348974995
 20
30.84973136434746
 10
209.2556348971284
 20
30.84973136434746
 10
209.2556348971284
 20
30.84973136434746
 10
209.2556348971284
 20
30.84973136434746
 10
209.2556348971284
 20
30.84973249533869
 10
209.2556348971284
 20
30.84973475624793
 72
     4
 94
        3
 73
     0
 74
     0
 95
        8
 96
        4
 40
5.49999
 40
5.49999
 40
5.49999
 40
5.49999
 40
5.999979147302425
 40
5.999979147302425
 40
5.999979147302425
 40
5.999979147302425
 10
209.2556348982398
 20
30.84973136434746
 10
209.2556527071774
 20
30.84973136434746
 10
209.4691701507909
 20
30.84973136434746
 10
209.6826833242467
 20
30.84973136434746
 72
     4
 94
        3
 73
     0
 74
     0
 95
       11
 96
        7
 40
4.999511717945667
 40
4.999511717945667
 40
4.999511717945667
 40
4.999511717945667
 40
5.499501717945666
 40
5.499501717945666
 40
5.499501717945666
 40
5.499989999999998
 40
5.499989999999998
 40
5.499989999999998
 40
5.499989999999998
 10
209.6826833242467
 20
30.84973136434746
 10
209.8961968618278
 20
30.84973136434746
 10
210.1097061292185
 20
30.84973136434746
 10
210.1097061292185
 20
30.84973136434746
 10
210.1097061292185
 20
30.84973136434746
 10
210.1097061292185
 20
30.84973183625425
 10
210.1097061292185
 20
30.84973277961035
 72
     4
 94
        3
 73
     0
 74
     0
 95
        8
 96
        4
 40
4.937501249873328
 40
4.937501249873328
 40
4.937501249873328
 40
4.937501249873328
 40
4.9531259375
 40
4.9531259375
 40
4.9531259375
 40
4.9531259375
 10
210.1097061292185
 20
30.86237038596209
 10
210.1097061292185
 20
30.86513375723371
 10
210.1097061292185
 20
30.86833504028255
 10
210.1097061292185
 20
30.87195913503274
 72
     4
 94
        3
 73
     0
 74
     0
 95
        8
 96
        4
 40
4.906251875000001
 40
4.906251875000001
 40
4.906251875000001
 40
4.906251875000001
 40
4.93750124987333
 40
4.93750124987333
 40
4.93750124987333
 40
4.93750124987333
 10
210.1097061292185
 20
30.87195913503274
 10
210.1097061292185
 20
30.87920732444127
 10
210.1097061292185
 20
30.88814676061338
 10
210.1097061292185
 20
30.89865664296667
 72
     4
 94
        3
 73
     0
 74
     0
 95
        8
 96
        4
 40
4.875002499912453
 40
4.875002499912453
 40
4.875002499912453
 40
4.875002499912453
 40
4.906251875000001
 40
4.906251875000001
 40
4.906251875000001
 40
4.906251875000001
 10
210.1097061292185
 20
30.89865664296667
 10
210.1097061292185
 20
30.90916652539363
 10
210.1097061292185
 20
30.92124685402723
 10
210.1097061292185
 20
30.93477682828234
 72
     4
 94
        3
 73
     0
 74
     0
 95
        8
 96
        4
 40
4.812503749999999
 40
4.812503749999999
 40
4.812503749999999
 40
4.812503749999999
 40
4.875002499912453
 40
4.875002499912453
 40
4.875002499912453
 40
4.875002499912453
 10
210.1097061292185
 20
30.93477682828234
 10
210.1097061292185
 20
30.9618367766825
 10
210.1097061292185
 20
30.99469530752594
 10
210.1097061292185
 20
31.03238601619159
 72
     4
 94
        3
 73
     0
 74
     0
 95
        8
 96
        4
 40
4.750005000000001
 40
4.750005000000001
 40
4.750005000000001
 40
4.750005000000001
 40
4.812503749999999
 40
4.812503749999999
 40
4.812503749999999
 40
4.812503749999999
 10
210.1097061292185
 20
31.03238601619159
 10
210.1097061292185
 20
31.07007672489999
 10
210.1097061292185
 20
31.11259961143787
 10
210.1097061292185
 20
31.15898827116507
 72
     4
 94
        3
 73
     0
 74
     0
 95
        8
 96
        4
 40
4.625007500000001
 40
4.625007500000001
 40
4.625007500000001
 40
4.625007500000001
 40
4.750005000000002
 40
4.750005000000002
 40
4.750005000000002
 40
4.750005000000002
 10
210.1097061292185
 20
31.15898827116507
 10
210.1097061292185
 20
31.25176559061219
 10
210.1097061292185
 20
31.36000600280295
 10
210.1097061292185
 20
31.47597827062873
 72
     4
 94
        3
 73
     0
 74
     0
 95
        8
 96
        4
 40
4.500009999999996
 40
4.500009999999996
 40
4.500009999999996
 40
4.500009999999996
 40
4.625007499999997
 40
4.625007499999997
 40
4.625007499999997
 40
4.625007499999997
 10
210.1097061292185
 20
31.47597827062873
 10
210.1097061292185
 20
31.59195053845269
 10
210.1097061292185
 20
31.71565466189804
 10
210.1097061292185
 20
31.83935940386164
 72
     4
 94
        3
 73
     0
 74
     0
 95
        8
 96
        4
 40
4.250014999999999
 40
4.250014999999999
 40
4.250014999999999
 40
4.250014999999999
 40
4.500009999999996
 40
4.500009999999996
 40
4.500009999999996
 40
4.500009999999996
 10
210.1097061292185
 20
31.83935940386164
 10
210.1097061292185
 20
32.08676888778791
 10
210.1097061292185
 20
32.33418084575351
 10
210.1097061292185
 20
32.51974538083596
 72
     4
 94
        3
 73
     0
 74
     0
 95
       11
 96
        7
 40
3.999287592773436
 40
3.999287592773436
 40
3.999287592773436
 40
3.999287592773436
 40
4.249302592773437
 40
4.249302592773437
 40
4.249302592773437
 40
4.250014999999999
 40
4.250014999999999
 40
4.250014999999999
 40
4.250014999999999
 10
210.1097061292185
 20
32.51974538083596
 10
210.1097061292185
 20
32.70532476137487
 10
210.1097061292185
 20
32.8290468228397
 10
210.1097061292185
 20
32.8290468228397
 10
210.1097061292185
 20
32.8290468228397
 10
210.1097067880492
 20
32.8290468228397
 10
210.1097081047701
 20
32.8290468228397
 72
     4
 94
        3
 73
     0
 74
     0
 95
        8
 96
        4
 40
3.906271874999998
 40
3.906271874999998
 40
3.906271874999998
 40
3.906271874999998
 40
3.937521249747056
 40
3.937521249747056
 40
3.937521249747056
 40
3.937521249747056
 10
210.1242749955982
 20
32.8290468228397
 10
210.1290272710594
 20
32.8290468228397
 10
210.1348887944696
 20
32.8290468228397
 10
210.1417803392469
 20
32.8290468228397
 72
     4
 94
        3
 73
     0
 74
     0
 95
        8
 96
        4
 40
3.875022499912441
 40
3.875022499912441
 40
3.875022499912441
 40
3.875022499912441
 40
3.906271874999998
 40
3.906271874999998
 40
3.906271874999998
 40
3.906271874999998
 10
210.1417803392469
 20
32.8290468228397
 10
210.1486718841188
 20
32.8290468228397
 10
210.1565934503906
 20
32.8290468228397
 10
210.1654658115076
 20
32.8290468228397
 72
     4
 94
        3
 73
     0
 74
     0
 95
        8
 96
        4
 40
3.81252375
 40
3.81252375
 40
3.81252375
 40
3.81252375
 40
3.875022499912441
 40
3.875022499912441
 40
3.875022499912441
 40
3.875022499912441
 10
210.1654658115076
 20
32.8290468228397
 10
210.1832105336598
 20
32.8290468228397
 10
210.2047584351476
 20
32.8290468228397
 10
210.2294757034779
 20
32.8290468228397
 72
     4
 94
        3
 73
     0
 74
     0
 95
        8
 96
        4
 40
3.750024999999998
 40
3.750024999999998
 40
3.750024999999998
 40
3.750024999999998
 40
3.81252375
 40
3.81252375
 40
3.81252375
 40
3.81252375
 10
210.2294757034779
 20
32.8290468228397
 10
210.2541929718409
 20
32.8290468228397
 10
210.2820796070282
 20
32.8290468228397
 10
210.3125017965285
 20
32.8290468228397
 72
     4
 94
        3
 73
     0
 74
     0
 95
        8
 96
        4
 40
3.6250275
 40
3.6250275
 40
3.6250275
 40
3.6250275
 40
3.750024999999998
 40
3.750024999999998
 40
3.750024999999998
 40
3.750024999999998
 10
210.3125017965285
 20
32.8290468228397
 10
210.3733461755382
 20
32.8290468228397
 10
210.4443327718091
 20
32.8290468228397
 10
210.5203910851578
 20
32.8290468228397
 72
     4
 94
        3
 73
     0
 74
     0
 95
        8
 96
        4
 40
3.50003
 40
3.50003
 40
3.50003
 40
3.50003
 40
3.6250275
 40
3.6250275
 40
3.6250275
 40
3.6250275
 10
210.5203910851578
 20
32.8290468228397
 10
210.5964493985193
 20
32.8290468228397
 10
210.6775794289788
 20
32.8290468228397
 10
210.7587106763785
 20
32.8290468228397
 72
     4
 94
        3
 73
     0
 74
     0
 95
        8
 96
        4
 40
3.250035
 40
3.250035
 40
3.250035
 40
3.250035
 40
3.50003
 40
3.50003
 40
3.50003
 40
3.50003
 10
210.7587106763785
 20
32.8290468228397
 10
210.920973171189
 20
32.8290468228397
 10
211.0832405337787
 20
32.8290468228397
 10
211.2049487629065
 20
32.8290468228397
 72
     4
 94
        3
 73
     0
 74
     0
 95
       11
 96
        7
 40
2.0
 40
2.0
 40
2.0
 40
2.0
 40
2.250035
 40
2.250035
 40
2.250035
 40
3.250035
 40
3.250035
 40
3.250035
 40
3.250035
 10
211.2049487629065
 20
32.8290468228397
 10
211.3266764657292
 20
32.8290468228397
 10
211.4078320548888
 20
32.8290468228397
 10
211.4078320548888
 20
32.8290468228397
 10
212.8016692284073
 20
32.8218091455019
 10
213.0681188951185
 20
33.77535643228384
 10
213.0681188951185
 20
34.41104720021303
 97
        0
 92
       20
 93
       11
 72
     4
 94
        3
 73
     0
 74
     0
 95
        8
 96
        4
 40
3.250015000000001
 40
3.250015000000001
 40
3.250015000000001
 40
3.250015000000001
 40
3.500009999937033
 40
3.500009999937033
 40
3.500009999937033
 40
3.500009999937033
 10
210.74166786559
 20
35.2706828398268
 10
210.8996598794893
 20
35.2706828398268
 10
211.0576534732681
 20
35.2706828398268
 10
211.1761522233683
 20
35.2706828398268
 72
     4
 94
        3
 73
     0
 74
     0
 95
       11
 96
        7
 40
2.0
 40
2.0
 40
2.0
 40
2.0
 40
2.250015
 40
2.250015
 40
2.250015
 40
3.250015
 40
3.250015
 40
3.250015
 40
3.250015
 10
211.1761522233683
 20
35.2706828398268
 10
211.2946604535882
 20
35.2706828398268
 10
211.3736675205491
 20
35.2706828398268
 10
211.3736675205491
 20
35.2706828398268
 10
211.8246309485585
 20
35.2706828398268
 10
212.2140476630393
 20
35.09729036061435
 10
212.2140476630393
 20
34.41826260777361
 72
     4
 94
        3
 73
     0
 74
     0
 95
        8
 96
        4
 40
1.0
 40
1.0
 40
1.0
 40
1.0
 40
2.0
 40
2.0
 40
2.0
 40
2.0
 10
212.2140476630393
 20
34.41826260777361
 10
212.2140476630393
 20
33.76814102472144
 10
211.7426107902775
 20
33.56586464549582
 10
211.3600185573778
 20
33.56586464549582
 72
     4
 94
        3
 73
     0
 74
     0
 95
       11
 96
        7
 40
4.49999
 40
4.49999
 40
4.49999
 40
4.49999
 40
5.49999
 40
5.49999
 40
5.49999
 40
6.0
 40
6.0
 40
6.0
 40
6.0
 10
211.3600185573778
 20
33.56586464549582
 10
211.3600185573778
 20
33.56586464549582
 10
210.1097061292185
 20
33.56586464549582
 10
210.1097061292185
 20
33.56586464549582
 10
210.1097061292185
 20
33.56586464549582
 10
210.1097061292185
 20
33.9920862424342
 10
210.1097061292185
 20
34.41829931493521
 72
     4
 94
        3
 73
     0
 74
     0
 95
       11
 96
        7
 40
3.999267592773436
 40
3.999267592773436
 40
3.999267592773436
 40
3.999267592773436
 40
4.499257592773438
 40
4.499257592773438
 40
4.499257592773438
 40
4.49999
 40
4.49999
 40
4.49999
 40
4.49999
 10
210.1097061292185
 20
34.41829931493521
 10
210.1097061292185
 20
34.84449533925635
 10
210.1097061292185
 20
35.2706828398268
 10
210.1097061292185
 20
35.2706828398268
 10
210.1097061292185
 20
35.2706828398268
 10
210.1097068072377
 20
35.2706828398268
 10
210.1097081622702
 20
35.2706828398268
 72
     4
 94
        3
 73
     0
 74
     0
 95
        8
 96
        4
 40
3.906251875
 40
3.906251875
 40
3.906251875
 40
3.906251875
 40
3.937501249746713
 40
3.937501249746713
 40
3.937501249746713
 40
3.937501249746713
 10
210.1239004527906
 20
35.2706828398268
 10
210.1285290386495
 20
35.2706828398268
 10
210.1342376295288
 20
35.2706828398268
 10
210.1409490839505
 20
35.2706828398268
 72
     4
 94
        3
 73
     0
 74
     0
 95
        8
 96
        4
 40
3.8750025
 40
3.8750025
 40
3.8750025
 40
3.8750025
 40
3.906251875
 40
3.906251875
 40
3.906251875
 40
3.906251875
 10
210.1409490839505
 20
35.2706828398268
 10
210.1476605383978
 20
35.2706828398268
 10
210.1553748564274
 20
35.2706828398268
 10
210.1640148965889
 20
35.2706828398268
 72
     4
 94
        3
 73
     0
 74
     0
 95
        8
 96
        4
 40
3.812503749999999
 40
3.812503749999999
 40
3.812503749999999
 40
3.812503749999999
 40
3.8750025
 40
3.8750025
 40
3.8750025
 40
3.8750025
 10
210.1640148965889
 20
35.2706828398268
 10
210.1812949768791
 20
35.2706828398268
 10
210.2022779456292
 20
35.2706828398268
 10
210.2263466712193
 20
35.2706828398268
 72
     4
 94
        3
 73
     0
 74
     0
 95
        8
 96
        4
 40
3.750004999953268
 40
3.750004999953268
 40
3.750004999953268
 40
3.750004999953268
 40
3.812503749999999
 40
3.812503749999999
 40
3.812503749999999
 40
3.812503749999999
 10
210.2263466712193
 20
35.2706828398268
 10
210.2504153968275
 20
35.2706828398268
 10
210.2775698792793
 20
35.2706828398268
 10
210.3071929869475
 20
35.2706828398268
 72
     4
 94
        3
 73
     0
 74
     0
 95
        8
 96
        4
 40
3.625007499999998
 40
3.625007499999998
 40
3.625007499999998
 40
3.625007499999998
 40
3.750004999953268
 40
3.750004999953268
 40
3.750004999953268
 40
3.750004999953268
 10
210.3071929869475
 20
35.2706828398268
 10
210.3664392022183
 20
35.2706828398268
 10
210.43555991834
 20
35.2706828398268
 10
210.5096180823984
 20
35.2706828398268
 72
     4
 94
        3
 73
     0
 74
     0
 95
        8
 96
        4
 40
3.500009999937033
 40
3.500009999937033
 40
3.500009999937033
 40
3.500009999937033
 40
3.625007499999998
 40
3.625007499999998
 40
3.625007499999998
 40
3.625007499999998
 10
210.5096180823984
 20
35.2706828398268
 10
210.5836762465187
 20
35.2706828398268
 10
210.6626718585685
 20
35.2706828398268
 10
210.74166786559
 20
35.2706828398268
 97
        0
 92
        7
 72
     0
 73
     1
 93
        8
 10
217.3717970626894
 20
36.0075006624802
 10
213.4370689592397
 20
36.0075006624802
 10
213.4370689592397
 20
35.22732358513895
 10
214.9755772384269
 20
35.22732358513895
 10
214.9755772384269
 20
30.84973136434746
 10
215.8264892106981
 20
30.84973136434746
 10
215.8264892106981
 20
35.22732358513895
 10
217.3717970626894
 20
35.22732358513895
 97
        0
 92
        7
 72
     0
 73
     1
 93
        4
 10
218.6007119832193
 20
36.0075006624802
 10
217.7404715399571
 20
36.0075006624802
 10
217.7404715399571
 20
30.84973136434746
 10
218.6007119832193
 20
30.84973136434746
 97
        0
 92
        5
 93
        9
 72
     4
 94
        3
 73
     0
 74
     0
 95
       11
 96
        7
 40
8.0
 40
8.0
 40
8.0
 40
8.0
 40
8.5
 40
8.5
 40
8.5
 40
9.5
 40
9.5
 40
9.5
 40
9.5
 10
222.9586207235679
 20
34.32502693008155
 10
223.1726301818398
 20
34.32502693008155
 10
223.3866396401281
 20
34.32502693008155
 10
223.3866396401281
 20
34.32502693008155
 10
223.2839049660197
 20
35.38690685420352
 10
222.4141438410497
 20
36.00061320636723
 10
221.3115512352069
 20
36.0075006624802
 72
     4
 94
        3
 73
     0
 74
     0
 95
        8
 96
        4
 40
7.0
 40
7.0
 40
7.0
 40
7.0
 40
8.0
 40
8.0
 40
8.0
 40
8.0
 10
221.3115512352069
 20
36.0075006624802
 10
219.8459881161889
 20
36.0075006624802
 10
218.9693864580586
 20
34.83527263742235
 10
218.9693864580586
 20
33.42861601341701
 72
     4
 94
        3
 73
     0
 74
     0
 95
        8
 96
        4
 40
6.0
 40
6.0
 40
6.0
 40
6.0
 40
7.0
 40
7.0
 40
7.0
 40
7.0
 10
218.9693864580586
 20
33.42861601341701
 10
218.9693864580586
 20
32.02193813182384
 10
219.8459881161889
 20
30.84973136434746
 10
221.3115512352069
 20
30.84973136434746
 72
     4
 94
        3
 73
     0
 74
     0
 95
        8
 96
        4
 40
5.0
 40
5.0
 40
5.0
 40
5.0
 40
6.0
 40
6.0
 40
6.0
 40
6.0
 10
221.3115512352069
 20
30.84973136434746
 10
222.4963569156389
 20
30.84973136434746
 10
223.324990390558
 20
31.66338651970818
 10
223.3934801732903
 20
32.84250200088354
 72
     4
 94
        3
 73
     0
 74
     0
 95
       11
 96
        7
 40
3.0
 40
3.0
 40
3.0
 40
3.0
 40
4.0
 40
4.0
 40
4.0
 40
5.0
 40
5.0
 40
5.0
 40
5.0
 10
223.3934801732903
 20
32.84250200088354
 10
223.3934801732903
 20
32.84250200088354
 10
222.5579639396892
 20
32.84250200088354
 10
222.5579639396892
 20
32.84250200088354
 10
222.4895163824767
 20
32.12537751906621
 10
222.0717371529063
 20
31.55305967635013
 10
221.3115512352069
 20
31.55305967635013
 72
     4
 94
        3
 73
     0
 74
     0
 95
        8
 96
        4
 40
2.0
 40
2.0
 40
2.0
 40
2.0
 40
3.0
 40
3.0
 40
3.0
 40
3.0
 10
221.3115512352069
 20
31.55305967635013
 10
220.2637673457593
 20
31.55305967635013
 10
219.8254665166787
 20
32.48392913118823
 10
219.8254665166787
 20
33.42861601341701
 72
     4
 94
        3
 73
     0
 74
     0
 95
        8
 96
        4
 40
1.0
 40
1.0
 40
1.0
 40
1.0
 40
2.0
 40
2.0
 40
2.0
 40
2.0
 10
219.8254665166787
 20
33.42861601341701
 10
219.8254665166787
 20
34.37328163806797
 10
220.2637673457593
 20
35.30417235047662
 10
221.3115512352069
 20
35.30417235047662
 72
     4
 94
        3
 73
     0
 74
     0
 95
        8
 96
        4
 40
0.0
 40
0.0
 40
0.0
 40
0.0
 40
1.0
 40
1.0
 40
1.0
 40
1.0
 10
221.3115512352069
 20
35.30417235047662
 10
222.0238111952003
 20
35.30417235047662
 10
222.3867817083792
 20
34.89043605909683
 10
222.5306018070096
 20
34.32502693008155
 72
     4
 94
        3
 73
     0
 74
     0
 95
        8
 96
        4
 40
9.5
 40
9.5
 40
9.5
 40
9.5
 40
10.0
 40
10.0
 40
10.0
 40
10.0
 10
222.5306018070096
 20
34.32502693008155
 10
222.5306018070096
 20
34.32502693008155
 10
222.7446112652906
 20
34.32502693008155
 10
222.9586207235679
 20
34.32502693008155
 97
        0
 92
        5
 93
       15
 72
     4
 94
        3
 73
     0
 74
     0
 95
        8
 96
        4
 40
13.0
 40
13.0
 40
13.0
 40
13.0
 40
14.0
 40
14.0
 40
14.0
 40
14.0
 10
225.8386489072291
 20
30.84973136434746
 10
226.8281328781286
 20
30.84973136434746
 10
227.817573885879
 20
31.29103873777331
 10
227.817573885879
 20
32.39430717133837
 72
     4
 94
        3
 73
     0
 74
     0
 95
        8
 96
        4
 40
12.0
 40
12.0
 40
12.0
 40
12.0
 40
13.0
 40
13.0
 40
13.0
 40
13.0
 10
227.817573885879
 20
32.39430717133837
 10
227.817573885879
 20
32.9045528786819
 10
227.5040289239078
 20
33.45618709546488
 10
226.8490129619186
 20
33.64926970012493
 72
     4
 94
        3
 73
     0
 74
     0
 95
        8
 96
        4
 40
11.0
 40
11.0
 40
11.0
 40
11.0
 40
12.0
 40
12.0
 40
12.0
 40
12.0
 10
226.8490129619186
 20
33.64926970012493
 10
226.5911911865078
 20
33.72511674773796
 10
225.4902608424491
 20
34.00782131224787
 10
225.4136146089404
 20
34.02850493817914
 72
     4
 94
        3
 73
     0
 74
     0
 95
        8
 96
        4
 40
10.0
 40
10.0
 40
10.0
 40
10.0
 40
11.0
 40
11.0
 40
11.0
 40
11.0
 10
225.4136146089404
 20
34.02850493817914
 10
225.0582235530783
 20
34.12505686930035
 10
224.8213248245993
 20
34.3181182163853
 10
224.8213248245993
 20
34.66289491626958
 72
     4
 94
        3
 73
     0
 74
     0
 95
        8
 96
        4
 40
9.0
 40
9.0
 40
9.0
 40
9.0
 40
10.0
 40
10.0
 40
10.0
 40
10.0
 10
224.8213248245993
 20
34.66289491626958
 10
224.8213248245993
 20
35.15936571137627
 10
225.3299653843569
 20
35.30417235047662
 10
225.7341195988574
 20
35.30417235047662
 72
     4
 94
        3
 73
     0
 74
     0
 95
        8
 96
        4
 40
8.0
 40
8.0
 40
8.0
 40
8.0
 40
9.0
 40
9.0
 40
9.0
 40
9.0
 10
225.7341195988574
 20
35.30417235047662
 10
226.3333694111079
 20
35.30417235047662
 10
226.7654067004787
 20
35.06972249394676
 10
226.8072098311986
 20
34.43535377343778
 72
     4
 94
        3
 73
     0
 74
     0
 95
       11
 96
        7
 40
6.0
 40
6.0
 40
6.0
 40
6.0
 40
7.0
 40
7.0
 40
7.0
 40
8.0
 40
8.0
 40
8.0
 40
8.0
 10
226.8072098311986
 20
34.43535377343778
 10
226.8072098311986
 20
34.43535377343778
 10
227.6782444378478
 20
34.43535377343778
 10
227.6782444378478
 20
34.43535377343778
 10
227.6782444378478
 20
35.46275390181017
 10
226.8072098311986
 20
36.0075006624802
 10
225.7689627016498
 20
36.0075006624802
 72
     4
 94
        3
 73
     0
 74
     0
 95
        8
 96
        4
 40
5.0
 40
5.0
 40
5.0
 40
5.0
 40
6.0
 40
6.0
 40
6.0
 40
6.0
 10
225.7689627016498
 20
36.0075006624802
 10
224.8700879832595
 20
36.0075006624802
 10
223.9502902179593
 20
35.54550966312308
 10
223.9502902179593
 20
34.55945552903086
 72
     4
 94
        3
 73
     0
 74
     0
 95
        8
 96
        4
 40
4.0
 40
4.0
 40
4.0
 40
4.0
 40
5.0
 40
5.0
 40
5.0
 40
5.0
 10
223.9502902179593
 20
34.55945552903086
 10
223.9502902179593
 20
34.04920982169006
 10
224.2011519654188
 20
33.5389428567687
 10
225.051263525158
 20
33.31140171393781
 72
     4
 94
        3
 73
     0
 74
     0
 95
        8
 96
        4
 40
3.0
 40
3.0
 40
3.0
 40
3.0
 40
4.0
 40
4.0
 40
4.0
 40
4.0
 10
225.051263525158
 20
33.31140171393781
 10
225.7341195988574
 20
33.12520656539709
 10
226.1870369720091
 20
33.03556334796849
 10
226.5354679999291
 20
32.9045528786819
 72
     4
 94
        3
 73
     0
 74
     0
 95
        8
 96
        4
 40
2.0
 40
2.0
 40
2.0
 40
2.0
 40
3.0
 40
3.0
 40
3.0
 40
3.0
 10
226.5354679999291
 20
32.9045528786819
 10
226.7375236256194
 20
32.82870583107069
 10
226.9465822423572
 20
32.67701173584828
 10
226.9465822423572
 20
32.29775524021898
 72
     4
 94
        3
 73
     0
 74
     0
 95
        8
 96
        4
 40
1.0
 40
1.0
 40
1.0
 40
1.0
 40
2.0
 40
2.0
 40
2.0
 40
2.0
 10
226.9465822423572
 20
32.29775524021898
 10
226.9465822423572
 20
31.92540745828501
 10
226.6608773921089
 20
31.55305967635013
 10
225.8944150569569
 20
31.55305967635013
 72
     4
 94
        3
 73
     0
 74
     0
 95
        8
 96
        4
 40
0.0
 40
0.0
 40
0.0
 40
0.0
 40
1.0
 40
1.0
 40
1.0
 40
1.0
 10
225.8944150569569
 20
31.55305967635013
 10
225.1975959642568
 20
31.55305967635013
 10
224.6331892547769
 20
31.84956041067562
 10
224.6331892547769
 20
32.60805214435914
 72
     4
 94
        3
 73
     0
 74
     0
 95
        8
 96
        4
 40
15.5
 40
15.5
 40
15.5
 40
15.5
 40
16.0
 40
16.0
 40
16.0
 40
16.0
 10
224.6331892547769
 20
32.60805214435914
 10
224.6331892547769
 20
32.60805214435914
 10
224.4154306031196
 20
32.60805214435914
 10
224.1976719514569
 20
32.60805214435914
 72
     4
 94
        3
 73
     0
 74
     0
 95
       11
 96
        7
 40
14.0
 40
14.0
 40
14.0
 40
14.0
 40
14.5
 40
14.5
 40
14.5
 40
15.5
 40
15.5
 40
15.5
 40
15.5
 10
224.1976719514569
 20
32.60805214435914
 10
223.9799132997996
 20
32.60805214435914
 10
223.7621546481296
 20
32.60805214435914
 10
223.7621546481296
 20
32.60805214435914
 10
223.7830776950686
 20
31.3875694113176
 10
224.7028324972289
 20
30.84973136434746
 10
225.8386489072291
 20
30.84973136434746
 97
        0
 75
     1
 76
     1
 47
0.0244899890509677
 98
       14
 10
185.2888855928904
 20
36.81031742969481
 10
185.2888855928904
 20
36.81031742969481
 10
185.2888855928904
 20
36.81031742969481
 10
185.2888855928904
 20
36.81031742969481
 10
196.2122221199897
 20
35.52802127778705
 10
199.4144547605592
 20
34.75756560612717
 10
206.5601719246897
 20
35.73545195180031
 10
206.5601719246897
 20
35.73545195180031
 10
211.0077170877776
 20
35.73545195180031
 10
211.0077170877776
 20
35.73545195180031
 10
215.8110645093093
 20
35.67618649195811
 10
218.3016864757083
 20
35.0835287643913
 10
221.6225208953074
 20
35.58728673762835
 10
225.2991575733395
 20
31.32015172498086
1001
GRADIENTCOLOR1ACI
1070
     5
1001
GRADIENTCOLOR2ACI
1070
     2
1001
ACAD
1010
0.0
1020
0.0
1030
0.0
  0
MTEXT
  5
D94
330
1F
100
AcDbEntity
  8
6文字层
100
AcDbMText
 10
217.9586460285391
 20
12.98934071260373
 30
0.0
 40
2.5
 41
17.84855769230755
 71
     5
 72
     5
  1
{\fSimHei|b1|i0|c134|p49;270643}
1001
ACDBBLOCKREPETAG
1000

1001
ACAD
1000
ACAD_MTEXT_DEFINED_HEIGHT_BEGIN
1070
    46
1040
4.283653846153733
1000
ACAD_MTEXT_DEFINED_HEIGHT_END
  0
MTEXT
  5
D95
330
1F
100
AcDbEntity
  8
6文字层
100
AcDbMText
 10
245.5932871021887
 20
21.13543729905609
 30
0.0
 40
2.5
 41
71.44564321082993
 71
     5
 72
     5
  1
{\fSimHei|b1|i0|c134|p49;K9偏心平凹球面反射镜 金膜^J25.00X20.00mm F=50.00mm}
1001
ACDBBLOCKREPETAG
1000

1001
ACAD
1000
ACAD_MTEXT_DEFINED_HEIGHT_BEGIN
1070
    46
1040
4.283653846153733
1000
ACAD_MTEXT_DEFINED_HEIGHT_END
  0
LINE
  5
D96
330
1F
100
AcDbEntity
  8
6文字层
 62
     0
100
AcDbLine
 10
147.0000007298586
 20
10.00000025367171
 30
0.0
 11
27.00000072979856
 21
10.0000002536699
 31
0.0
  0
MTEXT
  5
D97
102
{ACAD_XDICTIONARY
360
D98
102
}
330
1F
100
AcDbEntity
  8
6文字层
100
AcDbMText
 10
21.04260072708712
 20
70.86418703472486
 30
0.0
 40
2.5
 41
114.6703060300538
 71
     1
 72
     5
  1
{\fSimSun|b1|i0|c134|p49;\C1;注：}\P{\fSimSun|b1|i0|c134|p49;\C1;1：本图仅供参考,禁止使用本图加工生产.}\P{\fSimSun|b1|i0|c134|p49;\C1;2：图纸细节如有更改不再另行通知.}
  7
标准
1001
ACAD
1000
ACAD_MTEXT_COLUMN_INFO_BEGIN
1070
    75
1070
     2
1070
    79
1070
     0
1070
    76
1070
     1
1070
    78
1070
     0
1070
    48
1040
114.6703060300538
1070
    49
1040
1.0
1070
    50
1070
     1
1040
-12.28937728937729
1000
ACAD_MTEXT_COLUMN_INFO_END
  0
INSERT
  5
D99
330
1F
100
AcDbEntity
  8
2细线层
100
AcDbBlockReference
  2
*T65
 10
10.0
 20
41.66666666666629
 30
0.0
  0
MTEXT
  5
D9A
330
1F
100
AcDbEntity
  8
6文字层
100
AcDbMText
 10
26.12401889801549
 20
163.7511217848771
 30
0.0
 40
2.5
 41
73.0012707428877
 71
     1
 72
     1
  3
{\fSimSun|b1|i0|c134|p34;\W1;注释：\fSimSun|b1|i0|c0|p34; \P1.\fSimSun|b1|i0|c134|p34;材料：精退火\fSimSun|b1|i0|c0|p34;K9\fSimSun|b1|i0|c134|p34;光学玻璃\fSimSun|b1|i0|c0|p34; Nd=1.5168                                                \P2.\fSimSun|b1
  3
|i0|c134|p34;表面面型：\fSimSun|b1|i0|c0|p34;\U+03BB/4 @ 633 nm            \P3.\fSimSun|b1|i0|c134|p34;焦距：50\fSimSun|b1|i0|c0|p34;.00\U+00B12%mm \P4.\fSimSun|b1|i0|c134|p34;镀膜：镀金+保护    \P\fSimSun|b1|i0|c0|p34;5.\fSimSun|b1|i0|c134|p34;倒边
  1
：\fSimSun|b1|i0|c0|p34;0.2~0.5mmX45\U+00B0}
  7
TH-GBD2M
1001
ACAD
1000
ACAD_MTEXT_DEFINED_HEIGHT_BEGIN
1070
    46
1040
26.01190476190477
1000
ACAD_MTEXT_DEFINED_HEIGHT_END
  0
LINE
  5
D9B
330
1F
100
AcDbEntity
  8
3中心线层
100
AcDbLine
 10
128.433802760645
 20
148.2852642940147
 30
0.0
 11
234.4196934097258
 21
148.2852642940147
 31
0.0
  0
LINE
  5
D9C
330
1F
100
AcDbEntity
  8
3中心线层
100
AcDbLine
 10
194.5209030831634
 20
148.2852642940147
 30
0.0
 11
225.8543630645622
 21
148.2852642940147
 31
0.0
  0
LINE
  5
D9D
102
{ACAD_REACTORS
330
DC6
102
}
330
1F
100
AcDbEntity
  8
3中心线层
100
AcDbLine
 10
156.4900848967036
 20
163.6922140569404
 30
0.0
 11
156.4900848967036
 21
87.1699748133849
 31
0.0
  0
LEADER
  5
D9E
330
1F
100
AcDbEntity
  8
7标注层
100
AcDbLeader
  3
TH-GBD2M
 76
     3
 10
215.7495887531772
 20
148.2970441865627
 30
0.0
 10
220.3155029400373
 20
157.0975285185327
 30
0.0
 10
225.3408149293532
 20
157.0975285185327
 30
0.0
1001
ACAD
1000
DSTYLE
1002
{
1070
     5
1000

1070
   340
1005
2E5
1070
   147
1040
1.5
1070
    77
1070
     0
1002
}
  0
MTEXT
  5
D9F
330
1F
100
AcDbEntity
  8
7标注层
 62
     3
100
AcDbMText
 10
222.8815417651986
 20
159.7931668233875
 30
0.0
 40
2.5
 41
0.0
 71
     5
 72
     1
  1
\A1;S2
  7
TH-GBD2M
  0
LEADER
  5
DA0
330
1F
100
AcDbEntity
  8
7标注层
100
AcDbLeader
  3
TH-GBD2M
 76
     3
 10
206.7358589963283
 20
148.2852639645935
 30
0.0
 10
202.1699448094682
 20
157.0857482965635
 30
0.0
 10
197.1446328201523
 20
157.0857482965635
 30
0.0
211
-1.0
221
0.0
231
0.0
1001
ACAD
1000
DSTYLE
1002
{
1070
     5
1000

1070
   340
1005
2E5
1070
   147
1040
1.5
1070
    77
1070
     0
1002
}
  0
MTEXT
  5
DA1
330
1F
100
AcDbEntity
  8
7标注层
 62
     3
100
AcDbMText
 10
199.7685678138891
 20
159.4093118687401
 30
0.0
 40
2.5
 41
0.0
 71
     5
 72
     1
  1
\A1;S1
  7
TH-GBD2M
  0
LINE
  5
DA2
102
{ACAD_REACTORS
330
DC9
102
}
330
1F
100
AcDbEntity
  8
1轮廓实线层
100
AcDbLine
 10
206.7358588254165
 20
160.7852642940147
 30
0.0
 11
206.7358588254165
 21
135.7852642940147
 31
0.0
  0
ARC
  5
DA3
102
{ACAD_REACTORS
330
DD9
102
}
330
1F
100
AcDbEntity
  8
1轮廓实线层
100
AcDbCircle
 10
315.7221574911155
 20
148.2852642940147
 30
0.0
 40
100.0
100
AcDbArc
 50
172.8192442185406
 51
187.1807557814594
  0
DIMENSION
  5
DA4
330
1F
100
AcDbEntity
  8
7标注层
100
AcDbDimension
  2
*D66
 10
215.7359281486724
 20
168.0788823464159
 30
0.0
 11
231.4890050717495
 21
168.0788823464159
 31
0.0
 70
   160
  1
<>%%p0.20
  3
TH-GBD2M
100
AcDbAlignedDimension
 13
206.7358588254165
 23
148.2852642940147
 33
0.0
 14
215.7359281486724
 24
148.2852642940147
 34
0.0
100
AcDbRotatedDimension
1001
ACAD_DSTYLE_DIMINSPECT
1070
   396
1000
100%
1070
   395
1000

1070
   394
1070
    33
1070
   393
1070
     0
  0
DIMENSION
  5
DA5
330
1F
100
AcDbEntity
  8
7标注层
100
AcDbDimension
  2
*D67
 10
216.5064833261931
 20
130.6807455192011
 30
0.0
 11
211.6211710758048
 21
130.6807455192011
 31
0.0
 70
   160
  3
TH-GBD2M
100
AcDbAlignedDimension
 13
206.7358588254165
 23
135.7852642940147
 33
0.0
 14
216.5064833261931
 24
135.7852642940147
 34
0.0
100
AcDbRotatedDimension
  0
LINE
  5
DA6
102
{ACAD_REACTORS
330
DC4
102
}
330
1F
100
AcDbEntity
  8
1轮廓实线层
100
AcDbLine
 10
146.4934822753166
 20
135.7852642940147
 30
0.0
 11
146.4934822753166
 21
160.7852642940147
 31
0.0
  0
LINE
  5
DA7
102
{ACAD_REACTORS
330
DDE
102
}
330
1F
100
AcDbEntity
  8
1轮廓实线层
100
AcDbLine
 10
146.4934822753166
 20
160.7852642940147
 30
0.0
 11
166.4934822753166
 21
160.7852642940147
 31
0.0
  0
LINE
  5
DA8
102
{ACAD_REACTORS
330
DD7
102
}
330
1F
100
AcDbEntity
  8
1轮廓实线层
100
AcDbLine
 10
166.4934822753166
 20
160.7852642940147
 30
0.0
 11
166.4934822753166
 21
135.7852642940147
 31
0.0
  0
LINE
  5
DA9
330
1F
100
AcDbEntity
  8
1轮廓实线层
100
AcDbLine
 10
196.4934822753166
 20
135.7852642940147
 30
0.0
 11
196.4934822752621
 21
135.7852642940147
 31
0.0
  0
DIMENSION
  5
DAA
330
1F
100
AcDbEntity
  8
7标注层
100
AcDbDimension
  2
*D68
 10
166.4934822753166
 20
168.3880340493793
 30
0.0
 11
176.8713899676245
 21
168.3880340493793
 31
0.0
 70
   160
  1
<>{}{\H0.71x;\C3;\S 0.00^ -0.10;}
  3
透镜标注
100
AcDbAlignedDimension
 13
146.4934822753166
 23
160.7852642940147
 33
0.0
 14
166.4934822753166
 24
160.7852642940147
 34
0.0
100
AcDbRotatedDimension
1001
GENIUS_GENDTOL_13
1000
TolSmNrm
1000

1000
{\H0.71x;$2\S$+$P^ $-$M;}
1040
50.0
1001
ACAD_DSTYLE_DIMINSPECT
1070
   396
1000
100%
1070
   395
1000

1070
   394
1070
    33
1070
   393
1070
     0
1001
ACAD
1000
DSTYLE
1002
{
1070
    48
1040
0.1
1070
   288
1070
     1
1002
}
  0
DIMENSION
  5
DAB
330
1F
100
AcDbEntity
  8
7标注层
100
AcDbDimension
  2
*D69
 10
141.8569939235608
 20
160.7852642940148
 30
0.0
 11
141.8569939235608
 21
148.2852642940147
 31
0.0
 70
   160
  1
<>{}{\H0.71x;\C3;\S 0.00^ -0.10;}
  3
透镜标注
100
AcDbAlignedDimension
 13
146.4934822753166
 23
135.7852642940147
 33
0.0
 14
146.4934822753166
 24
160.7852642940147
 34
0.0
 50
90.0
100
AcDbRotatedDimension
1001
GENIUS_GENDTOL_13
1000
TolSmNrm
1000

1000
{\H0.71x;$2\S$+$P^ $-$M;}
1040
50.0
1001
ACAD_DSTYLE_DIMINSPECT
1070
   396
1000
100%
1070
   395
1000

1070
   394
1070
    33
1070
   393
1070
     0
1001
ACAD
1000
DSTYLE
1002
{
1070
    48
1040
0.1
1070
   288
1070
     1
1002
}
  0
LINE
  5
DAC
102
{ACAD_REACTORS
330
DE4
102
}
330
1F
100
AcDbEntity
  8
1轮廓实线层
100
AcDbLine
 10
146.4934822753166
 20
135.7852642940147
 30
0.0
 11
166.4934822753166
 21
135.7852642940147
 31
0.0
  0
LINE
  5
DAD
102
{ACAD_REACTORS
330
DDA
102
}
330
1F
100
AcDbEntity
  8
1轮廓实线层
100
AcDbLine
 10
206.7358588254165
 20
135.7852642940147
 30
0.0
 11
216.5064833261931
 21
135.7852642940147
 31
0.0
  0
LINE
  5
DAE
102
{ACAD_REACTORS
330
DC3
102
}
330
1F
100
AcDbEntity
  8
1轮廓实线层
100
AcDbLine
 10
206.7358588254165
 20
160.7852642940147
 30
0.0
 11
216.5064833261931
 21
160.7852642940147
 31
0.0
  0
DIMENSION
  5
DAF
330
1F
100
AcDbEntity
  8
7标注层
100
AcDbDimension
  2
*D70
 10
134.9474108188588
 20
94.48703000612002
 30
0.0
 11
134.9474108188588
 21
85.59395308304238
 31
0.0
 70
   160
  3
TH-GBD2M
100
AcDbAlignedDimension
 13
146.8468001530405
 23
106.6624463509345
 33
0.0
 14
146.8468001530405
 24
94.48703000612
 34
0.0
 50
90.0
100
AcDbRotatedDimension
  0
DIMENSION
  5
DB0
330
1F
100
AcDbEntity
  8
7标注层
100
AcDbDimension
  2
*D71
 10
128.02971722861
 20
97.6670300061208
 30
0.0
 11
128.02971722861
 21
102.1647381785276
 31
0.0
 70
   160
  3
TH-GBD2M
100
AcDbAlignedDimension
 13
146.8468001530405
 23
106.6624463509345
 33
0.0
 14
146.4934822753166
 24
97.66703000612074
 34
0.0
 50
90.0
100
AcDbRotatedDimension
  0
LINE
  5
DB1
102
{ACAD_REACTORS
330
DE0
102
}
330
1F
100
AcDbEntity
  8
7标注层
 62
     0
100
AcDbLine
 10
146.8468001530405
 20
106.6624463509345
 30
0.0
 11
146.8468001530405
 21
94.48703000612
 31
0.0
  0
LINE
  5
DB2
102
{ACAD_REACTORS
330
DDB
102
}
330
1F
100
AcDbEntity
  8
0
100
AcDbLine
 10
166.8468001530405
 20
106.7004136940322
 30
0.0
 11
166.8468001530405
 21
97.49940078502732
 31
0.0
  0
LINE
  5
DB3
102
{ACAD_REACTORS
330
DC5
102
}
330
1F
100
AcDbEntity
  8
0
100
AcDbLine
 10
146.4934822753166
 20
106.6670300061203
 30
0.0
 11
166.4934822753166
 21
106.6670300061203
 31
0.0
  0
ARC
  5
DB4
102
{ACAD_REACTORS
330
DC7
102
}
330
1F
100
AcDbEntity
  8
0
100
AcDbCircle
 10
171.664306400879
 20
-2.384489975959696
 30
0.0
 40
100.0
100
AcDbArc
 50
92.7612965473406
 51
104.369548024585
  0
DIMENSION
  5
DB5
330
1F
100
AcDbEntity
  8
7标注层
100
AcDbDimension
  2
*D72
 10
164.9454685883238
 20
97.54195178331116
 30
0.0
 11
164.9454685883238
 21
85.40733639869495
 31
0.0
 70
   160
  3
TH-GBD2M
100
AcDbAlignedDimension
 13
166.4934822753166
 23
106.6670300061203
 33
0.0
 14
166.4934822753166
 24
97.5419517833111
 34
0.0
 50
90.0
100
AcDbRotatedDimension
  0
ARC
  5
DB6
102
{ACAD_REACTORS
330
DE2
102
}
330
1F
100
AcDbEntity
  8
0
  6
CENTER
100
AcDbCircle
 10
171.8468001530405
 20
-2.337553649065512
 30
0.0
 40
100.0
100
AcDbArc
 50
75.52248781407056
 51
104.4775121859295
  0
LINE
  5
DB7
102
{ACAD_REACTORS
330
DE1
102
}
330
1F
100
AcDbEntity
  8
3中心线层
100
AcDbLine
 10
171.8468001530405
 20
109.4551724279579
 30
0.0
 11
171.8468001530405
 21
85.46218542795441
 31
0.0
  0
DIMENSION
  5
DB8
330
1F
100
AcDbEntity
  8
7标注层
100
AcDbDimension
  2
*D73
 10
171.8468001530405
 20
118.3675363916029
 30
0.0
 11
184.9556320699021
 21
118.3675363916029
 31
0.0
 70
   160
  3
TH-GBD2M
100
AcDbAlignedDimension
 13
166.8468001530405
 23
106.6670300061203
 33
0.0
 14
171.8468001530405
 24
106.71827299407
 34
0.0
100
AcDbRotatedDimension
  0
DIMENSION
  5
DB9
102
{ACAD_REACTORS
330
DD2
102
}
102
{ACAD_XDICTIONARY
360
F1B
102
}
330
1F
100
AcDbEntity
  8
ADSK_CONSTRAINTS
 60
     1
100
AcDbDimension
 10
315.722157491115
 20
148.2852642940147
 30
0.0
 11
239.4907510528562
 21
141.54030012259
 31
0.0
 70
   132
  1
半径2=100
  3
TH-GBD2M
100
AcDbRadialDimension
 15
216.11131064703
 25
139.4716843741326
 35
0.0
 40
0.0
1001
ACAD
1000
DSTYLE
1002
{
1070
   288
1070
     1
1002
}
1001
ACAD_DSTYLE_DIMRADIAL_EXTE
1070
   387
1070
     1
1070
   388
1040
3.019949950077523
1070
   390
1040
3.263235357102063
  0
DIMENSION
  5
DBA
102
{ACAD_REACTORS
330
DCF
102
}
102
{ACAD_XDICTIONARY
360
F1D
102
}
330
1F
100
AcDbEntity
  8
ADSK_CONSTRAINTS
 60
     1
100
AcDbDimension
 10
201.2502196964515
 20
138.9172520390446
 30
0.0
 11
201.2502196964515
 21
138.9172520390446
 31
0.0
 70
   128
  1
d3=25
  3
TH-GBD2M
100
AcDbAlignedDimension
 13
211.6211710758048
 23
160.7852642940147
 33
0.0
 14
211.6211710758048
 24
135.7852642940147
 34
0.0
 50
90.0
100
AcDbRotatedDimension
  0
DIMENSION
  5
DBB
102
{ACAD_REACTORS
330
DDC
102
}
102
{ACAD_XDICTIONARY
360
F1F
102
}
330
1F
100
AcDbEntity
  8
ADSK_CONSTRAINTS
 60
     1
100
AcDbDimension
 10
146.84680015304
 20
120.0357926577144
 30
0.0
 11
146.84680015304
 21
120.0357926577144
 31
0.0
 70
   128
  1
d2=20
  3
ISO-25
100
AcDbAlignedDimension
 13
166.8468001530405
 23
102.0999072395298
 33
0.0
 14
146.8468001530405
 24
100.5747381785272
 34
0.0
100
AcDbRotatedDimension
  0
DIMENSION
  5
DBC
102
{ACAD_REACTORS
330
DCD
102
}
102
{ACAD_XDICTIONARY
360
F21
102
}
330
1F
100
AcDbEntity
  8
ADSK_CONSTRAINTS
 60
     1
100
AcDbDimension
 10
171.6643064008818
 20
-2.384489975973651
 30
0.0
 11
173.1031092394767
 21
90.8278462980081
 31
0.0
 70
   132
  1
半径1=100
  3
ISO-25
100
AcDbRadialDimension
 15
173.2076981023554
 25
97.60359902496018
 35
0.0
 40
0.0
1001
ACAD
1000
DSTYLE
1002
{
1070
   288
1070
     1
1002
}
1001
ACAD_DSTYLE_DIMRADIAL_EXTE
1070
   387
1070
     1
1070
   388
1040
0.6462361007784128
1070
   390
1040
2.510730858992122
  0
DIMENSION
  5
DBD
102
{ACAD_REACTORS
330
DCB
102
}
102
{ACAD_XDICTIONARY
360
F23
102
}
330
1F
100
AcDbEntity
  8
ADSK_CONSTRAINTS
 60
     1
100
AcDbDimension
 10
166.4934822753162
 20
155.0762341303498
 30
0.0
 11
166.4934822753162
 21
155.0762341303498
 31
0.0
 70
   128
  1
d1=20
  3
ISO-25
100
AcDbAlignedDimension
 13
146.4934822753166
 23
160.7852642940147
 33
0.0
 14
166.4934822753166
 24
160.7852642940147
 34
0.0
100
AcDbRotatedDimension
  0
DIMENSION
  5
DBE
102
{ACAD_REACTORS
330
DD4
102
}
102
{ACAD_XDICTIONARY
360
F25
102
}
330
1F
100
AcDbEntity
  8
ADSK_CONSTRAINTS
 60
     1
100
AcDbDimension
 10
171.8468001530405
 20
-2.337553649065285
 30
0.0
 11
176.9892437742328
 21
85.93734924768053
 31
0.0
 70
   132
  1
半径3=100
  3
ISO-25
100
AcDbRadialDimension
 15
198.3667625490089
 25
94.08179915168928
 35
0.0
 40
0.0
1001
ACAD
1000
DSTYLE
1002
{
1070
   288
1070
     1
1002
}
1001
ACAD_DSTYLE_DIMRADIAL_EXTE
1070
   387
1070
     1
1070
   388
1040
1.357546453390195
1070
   390
1040
1.653637165106711
  0
DIMENSION
  5
DBF
102
{ACAD_REACTORS
330
DE5
102
}
102
{ACAD_XDICTIONARY
360
F27
102
}
330
1F
100
AcDbEntity
  8
ADSK_CONSTRAINTS
 60
     1
100
AcDbDimension
 10
150.6577741836645
 20
94.48703000612
 30
0.0
 11
150.6577741836645
 21
94.48703000612
 31
0.0
 70
   128
  1
d4=12.18
  3
ISO-25
100
AcDbAlignedDimension
 13
146.4934822753166
 23
106.6670300061203
 33
0.0
 14
146.8468001530405
 24
94.48703000612
 34
0.0
 50
90.0
100
AcDbRotatedDimension
  0
ENDSEC
  0
SECTION
  2
OBJECTS
  0
DICTIONARY
  5
C
330
0
100
AcDbDictionary
  3
ACAD_ASSOCNETWORK
350
D73
  3
ACAD_CIP_PREVIOUS_PRODUCT_INFO
350
216
  3
ACAD_COLOR
350
6B
  3
ACAD_DETAILVIEWSTYLE
350
21B
  3
ACAD_GROUP
350
D
  3
ACAD_LAYOUT
350
1A
  3
ACAD_MATERIAL
350
6A
  3
ACAD_MLEADERSTYLE
350
12D
  3
ACAD_MLINESTYLE
350
17
  3
ACAD_PLOTSETTINGS
350
19
  3
ACAD_RENDER_ACTIVE_RAPIDRT
350
714
  3
ACAD_RENDER_RAPIDRT_SETTINGS
350
70D
  3
ACAD_SCALELIST
350
10C
  3
ACAD_SECTIONVIEWSTYLE
350
219
  3
ACAD_VISUALSTYLE
350
EF
  3
ACDB_RECOMPOSE_DATA
350
F2F
  3
ACDBHEADERROUNDTRIPXREC
350
EF4
  3
ACDBVARIABLEDICTIONARY
350
5E
  3
DWGPROPS
350
F19
  0
DICTIONARY
  5
F29
330
8
100
AcDbDictionary
280
     1
  3
ACAD_XREC_ROUNDTRIP
360
F2A
  0
DICTIONARY
  5
1FF
330
2
100
AcDbDictionary
280
     1
  3
ACAD_LAYERSTATES
360
200
  0
DICTIONARY
  5
1CE
330
1F
100
AcDbDictionary
280
     1
  3
ACAD_ASSOCNETWORK
360
E71
  0
DICTIONARY
  5
D98
330
D97
100
AcDbDictionary
280
     1
  3
ACAD_MTEXT_RT
360
F1A
  0
DICTIONARY
  5
F1B
330
DB9
100
AcDbDictionary
280
     1
  3
ACAD_XREC_ROUNDTRIP
360
F1C
  0
DICTIONARY
  5
F1D
330
DBA
100
AcDbDictionary
280
     1
  3
ACAD_XREC_ROUNDTRIP
360
F1E
  0
DICTIONARY
  5
F1F
330
DBB
100
AcDbDictionary
280
     1
  3
ACAD_XREC_ROUNDTRIP
360
F20
  0
DICTIONARY
  5
F21
330
DBC
100
AcDbDictionary
280
     1
  3
ACAD_XREC_ROUNDTRIP
360
F22
  0
DICTIONARY
  5
F23
330
DBD
100
AcDbDictionary
280
     1
  3
ACAD_XREC_ROUNDTRIP
360
F24
  0
DICTIONARY
  5
F25
330
DBE
100
AcDbDictionary
280
     1
  3
ACAD_XREC_ROUNDTRIP
360
F26
  0
DICTIONARY
  5
F27
330
DBF
100
AcDbDictionary
280
     1
  3
ACAD_XREC_ROUNDTRIP
360
F28
  0
DICTIONARY
  5
D73
102
{ACAD_REACTORS
330
C
102
}
330
C
100
AcDbDictionary
  3
ACAD_ASSOCNETWORK
350
D74
  0
XRECORD
  5
216
102
{ACAD_REACTORS
330
C
102
}
330
C
100
AcDbXrecord
300
ACD
300
2021
300

  0
DICTIONARY
  5
6B
102
{ACAD_REACTORS
330
C
102
}
330
C
100
AcDbDictionary
  0
DICTIONARY
  5
21B
102
{ACAD_REACTORS
330
C
102
}
330
C
100
AcDbDictionary
  3
METRIC50
350
21C
  0
DICTIONARY
  5
D
102
{ACAD_REACTORS
330
C
102
}
330
C
100
AcDbDictionary
  0
DICTIONARY
  5
1A
102
{ACAD_REACTORS
330
C
102
}
330
C
100
AcDbDictionary
  0
DICTIONARY
  5
6A
102
{ACAD_REACTORS
330
C
102
}
330
C
100
AcDbDictionary
  3
BYBLOCK
350
ED
  3
BYLAYER
350
EC
  3
GLOBAL
350
EE
  0
DICTIONARY
  5
12D
102
{ACAD_REACTORS
330
C
102
}
330
C
100
AcDbDictionary
  3
ANNOTATIVE
350
13B
  3
STANDARD
350
12E
  0
DICTIONARY
  5
17
102
{ACAD_REACTORS
330
C
102
}
330
C
100
AcDbDictionary
  3
STANDARD
350
18
  0
DICTIONARY
  5
19
102
{ACAD_REACTORS
330
C
102
}
330
C
100
AcDbDictionary
  0
ACAD_PROXY_OBJECT
  5
714
102
{ACAD_REACTORS
330
C
102
}
330
C
100
AcDbProxyObject
 90
      499
 91
      525
 93
      375
310
40902D6D0B911D3A6D3C3203520B8F6E4D6C8BEBCB6B1F090390540501408000000000000084000000000000002102
  0
DICTIONARY
  5
70D
102
{ACAD_REACTORS
330
C
102
}
330
C
100
AcDbDictionary
  3
茶歇质量
350
711
  3
低
350
70E
  3
高
350
710
  3
午餐质量
350
712
  3
夜间质量
350
713
  3
中
350
70F
  0
DICTIONARY
  5
10C
102
{ACAD_REACTORS
330
C
102
}
330
C
100
AcDbDictionary
  3
A0
350
10D
  3
A1
350
1BE
  3
A2
350
1BF
  3
A3
350
1C0
  3
A4
350
1C1
  3
A5
350
1C2
  3
A6
350
1C3
  3
A7
350
1C4
  3
A8
350
1C5
  3
A9
350
1C6
  3
B0
350
1C7
  3
B1
350
1C8
  3
B2
350
1C9
  3
B3
350
1CA
  3
B4
350
1CB
  3
B5
350
1CC
  3
B6
350
1CD
  0
DICTIONARY
  5
219
102
{ACAD_REACTORS
330
C
102
}
330
C
100
AcDbDictionary
  3
METRIC50
350
21A
  0
DICTIONARY
  5
EF
102
{ACAD_REACTORS
330
C
102
}
330
C
100
AcDbDictionary
  3
2DWIREFRAME
350
F5
  3
BASIC
350
F4
  3
BRIGHTEN
350
FB
  3
COLORCHANGE
350
FF
  3
CONCEPTUAL
350
F8
  3
DIM
350
FA
  3
EDGECOLOROFF
350
1E6
  3
FACEPATTERN
350
FE
  3
FLAT
350
F0
  3
FLATWITHEDGES
350
F1
  3
GOURAUD
350
F2
  3
GOURAUDWITHEDGES
350
F3
  3
HIDDEN
350
F7
  3
JITTEROFF
350
1E4
  3
LINEPATTERN
350
FD
  3
OVERHANGOFF
350
1E5
  3
REALISTIC
350
F9
  3
SHADED
350
1F3
  3
SHADED_WITH_EDGES
350
1F2
  3
SHADES_OF_GRAY
350
1EF
  3
SKETCHY
350
1F0
  3
THICKEN
350
FC
  3
WIREFRAME
350
F6
  3
X-RAY
350
1F1
  0
XRECORD
  5
F2F
102
{ACAD_REACTORS
330
C
102
}
330
C
100
AcDbXrecord
 90
        1
330
D97
  0
DICTIONARY
  5
EF4
102
{ACAD_REACTORS
330
C
102
}
330
C
100
AcDbDictionary
  3
CEPSNID
350
EFE
  3
CEPSNTYPE
350
EFD
  3
COLORDICT
350
F17
  3
DIMSTYLEDATA
350
F14
  3
FINGERPRINTGUID
350
EFF
  3
HYPERLINKBASE
350
EF7
  3
INSUNITS
350
EFC
  3
LAYOUTDICT
350
EF9
  3
LWETCUNION
350
EFB
  3
MATERIALDICT
350
F18
  3
PLOTSETDICT
350
EFA
  3
PSVPSCALE
350
F01
  3
PUCSBASE
350
F04
  3
PUCSORGBACK
350
F0A
  3
PUCSORGBOTTOM
350
F06
  3
PUCSORGFRONT
350
F09
  3
PUCSORGLEFT
350
F07
  3
PUCSORGRIGHT
350
F08
  3
PUCSORGTOP
350
F05
  3
PUCSORTHOREF
350
F02
  3
PUCSORTHOVIEW
350
F03
  3
STYLESHEET
350
EF8
  3
TSTACKALIGN
350
EF5
  3
TSTACKSIZE
350
EF6
  3
UCSBASE
350
F0D
  3
UCSORGBACK
350
F13
  3
UCSORGBOTTOM
350
F0F
  3
UCSORGFRONT
350
F12
  3
UCSORGLEFT
350
F10
  3
UCSORGRIGHT
350
F11
  3
UCSORGTOP
350
F0E
  3
UCSORTHOREF
350
F0B
  3
UCSORTHOVIEW
350
F0C
  3
VERSIONGUID
350
F00
  0
DICTIONARY
  5
5E
102
{ACAD_REACTORS
330
C
102
}
330
C
100
AcDbDictionary
  3
CANNOSCALE
350
146
  3
CENTEREXE
350
259
  3
CENTERLTYPEFILE
350
25A
  3
CMLEADERSTYLE
350
145
  3
CTABLESTYLE
350
84
  3
CVIEWDETAILSTYLE
350
227
  3
CVIEWSECTIONSTYLE
350
228
  3
DIMASSOC
350
5F
  3
HIDETEXT
350
63
  3
LAYEREVAL
350
1AE
  3
LAYERNOTIFY
350
1AF
  3
MSLTSCALE
350
F2B
  3
PSOLHEIGHT
350
F16
  3
PSOLWIDTH
350
F15
  0
XRECORD
  5
F19
102
{ACAD_REACTORS
330
C
102
}
330
C
100
AcDbXrecord
  1
DWGPROPS COOKIE
  2

  3

  4

  6

  7

  8
MSI
  9

300
=
301
=
302
=
303
=
304
=
305
=
306
=
307
=
308
=
309
=
 40
0.0
 41
2460229.148055556
 42
2460669.129095451
  1

 90
        0
  0
XRECORD
  5
F2A
102
{ACAD_REACTORS
330
F29
102
}
330
F29
100
AcDbXrecord
102
VTR_0.000_0.000_1.000_1.000_VISUALSTYLE
340
F5
102
VTR_0.000_0.000_1.000_1.000_GRIDDISPLAY
 70
     3
102
VTR_0.000_0.000_1.000_1.000_GRIDMAJOR
 70
     5
102
VTR_0.000_0.000_1.000_1.000_DEFAULTLIGHTING
280
     1
102
VTR_0.000_0.000_1.000_1.000_DEFAULTLIGHTINGTYPE
 70
     1
102
VTR_0.000_0.000_1.000_1.000_BRIGHTNESS
141
0.0
102
VTR_0.000_0.000_1.000_1.000_CONTRAST
142
0.0
  0
DICTIONARY
  5
200
102
{ACAD_REACTORS
330
1FF
102
}
330
1FF
100
AcDbDictionary
  0
DICTIONARY
  5
E71
102
{ACAD_REACTORS
330
1CE
102
}
330
1CE
100
AcDbDictionary
  3
ACAD_ASSOCNETWORK
350
E72
  0
XRECORD
  5
F1A
102
{ACAD_REACTORS
330
D98
102
}
330
D98
100
AcDbXrecord
 40
116758.0
  1
\pxqj;{\fSimSun|b1|i0|c134|p49;\C1;注：\P1：本图仅供参考,禁止使用本图加工生产.\P2：图纸细节如有更改不再另行通知.}
  0
XRECORD
  5
F1C
102
{ACAD_REACTORS
330
F1B
102
}
330
F1B
100
AcDbXrecord
102
ISDYNAMIC
 70
     1
  0
XRECORD
  5
F1E
102
{ACAD_REACTORS
330
F1D
102
}
330
F1D
100
AcDbXrecord
102
ISDYNAMIC
 70
     1
  0
XRECORD
  5
F20
102
{ACAD_REACTORS
330
F1F
102
}
330
F1F
100
AcDbXrecord
102
ISDYNAMIC
 70
     1
  0
XRECORD
  5
F22
102
{ACAD_REACTORS
330
F21
102
}
330
F21
100
AcDbXrecord
102
ISDYNAMIC
 70
     1
  0
XRECORD
  5
F24
102
{ACAD_REACTORS
330
F23
102
}
330
F23
100
AcDbXrecord
102
ISDYNAMIC
 70
     1
  0
XRECORD
  5
F26
102
{ACAD_REACTORS
330
F25
102
}
330
F25
100
AcDbXrecord
102
ISDYNAMIC
 70
     1
  0
XRECORD
  5
F28
102
{ACAD_REACTORS
330
F27
102
}
330
F27
100
AcDbXrecord
102
ISDYNAMIC
 70
     1
  0
ACAD_PROXY_OBJECT
  5
D74
102
{ACAD_REACTORS
330
D73
102
}
330
D73
100
AcDbProxyObject
 90
      499
 91
      529
 93
       52
310
40AAAAA4090140
330
0
360
0
330
E72
 94
        0
1001
ACAD
1000
AcadProxyRoundTripData
1071
      524
1071
 11403297
1070
     0
  0
ACAD_PROXY_OBJECT
  5
21C
102
{ACAD_REACTORS
330
21B
102
}
330
21B
100
AcDbProxyObject
 90
      499
 91
      516
 93
      877
310
9084D65747269633530481E0000000000000A20500E0000000000000A20233E0000000000000A20400000000000017202029B929E2E20B1AB30B9102B34B2BBA232BA30B4B624B21F129014129E2E20B1AB30B9102B34B2BBA9B1B0B632902E33101112B9B7111F1294A33A33800
340
11
340
0
340
16
340
11
340
16
340
16
 94
        0
  0
MATERIAL
  5
ED
102
{ACAD_REACTORS
330
6A
102
}
102
{ACAD_XDICTIONARY
360
1F9
102
}
330
6A
100
AcDbMaterial
  1
BYBLOCK
 73
     2
 78
     2
172
     2
176
     2
270
     2
274
     2
  0
MATERIAL
  5
EC
102
{ACAD_REACTORS
330
6A
102
}
102
{ACAD_XDICTIONARY
360
1F7
102
}
330
6A
100
AcDbMaterial
  1
BYLAYER
 73
     2
 78
     2
172
     2
176
     2
270
     2
274
     2
  0
MATERIAL
  5
EE
102
{ACAD_REACTORS
330
6A
102
}
102
{ACAD_XDICTIONARY
360
173
102
}
330
6A
100
AcDbMaterial
  1
GLOBAL
 73
     2
 43
0.0007999999797903
 43
0.0
 43
0.0
 43
0.0
 43
0.0
 43
0.0007999999797903
 43
0.0
 43
0.0
 43
0.0
 43
0.0
 43
1.0
 43
0.0
 43
0.0
 43
0.0
 43
0.0
 43
1.0
 78
     2
172
     2
 49
0.0007999999797903
 49
0.0
 49
0.0
 49
0.0
 49
0.0
 49
0.0007999999797903
 49
0.0
 49
0.0
 49
0.0
 49
0.0
 49
1.0
 49
0.0
 49
0.0
 49
0.0
 49
0.0
 49
1.0
176
     2
142
0.0007999999797903
142
0.0
142
0.0
142
0.0
142
0.0
142
0.0007999999797903
142
0.0
142
0.0
142
0.0
142
0.0
142
1.0
142
0.0
142
0.0
142
0.0
142
0.0
142
1.0
270
     2
144
0.0007999999797903
144
0.0
144
0.0
144
0.0
144
0.0
144
0.0007999999797903
144
0.0
144
0.0
144
0.0
144
0.0
144
1.0
144
0.0
144
0.0
144
0.0
144
0.0
144
1.0
274
     2
1001
ACAD
1070
    -1
1070
     3
1070
     0
1000

1071
        0
1070
     0
  0
ACAD_PROXY_OBJECT
  5
13B
102
{ACAD_REACTORS
330
12D
102
}
330
12D
100
AcDbProxyObject
 90
      499
 91
      508
 93
      610
310
40901902A4063FBFFFFFE0000000000000020400000000000020404214DD185B99185C990000000000000104090140501A00000000000004100000000000000041025766000000000000039000
340
14
340
0
340
11
340
0
 94
        0
1001
ACAD_MLEADERVER
1070
     2
  0
ACAD_PROXY_OBJECT
  5
12E
102
{ACAD_REACTORS
330
12D
102
}
330
12D
100
AcDbProxyObject
 90
      499
 91
      508
 93
      610
310
40901902A4063FBFFFFFE0000000000000020400000000000020404214DD185B99185C990000000000000104090140501A00000000000004100000000000000041025764000000000000039000
340
14
340
0
340
11
340
0
 94
        0
1001
ACAD_MLEADERVER
1070
     2
  0
MLINESTYLE
  5
18
102
{ACAD_REACTORS
330
17
102
}
330
17
100
AcDbMlineStyle
  2
STANDARD
 70
     0
  3

 62
   256
 51
90.0
 52
90.0
 71
     2
 49
0.5
 62
   256
  6
BYLAYER
 49
-0.5
 62
   256
  6
BYLAYER
  0
ACAD_PROXY_OBJECT
  5
711
102
{ACAD_REACTORS
330
70D
102
}
330
70D
100
AcDbProxyObject
 90
      499
 91
      525
 93
      399
310
40908B2E8D0AAD6CAC1BFB90CE4D6C8BE20313020B7D6D6D340D034050142901408000000000000084000000000000002102
  0
ACAD_PROXY_OBJECT
  5
70E
102
{ACAD_REACTORS
330
70D
102
}
330
70D
100
AcDbProxyObject
 90
      499
 91
      525
 93
      367
310
40902B5CDB911D3A6D3C3203120B8F6E4D6C8BEBCB6B1F0903901406408000000000000084000000000000002102
  0
ACAD_PROXY_OBJECT
  5
710
102
{ACAD_REACTORS
330
70D
102
}
330
70D
100
AcDbProxyObject
 90
      499
 91
      525
 93
      391
310
40902B8DFB912D3A6D3C320313020B8F6E4D6C8BEBCB6B1F04090390A40502408000000000000084000000000000002102
  0
ACAD_PROXY_OBJECT
  5
712
102
{ACAD_REACTORS
330
70D
102
}
330
70D
100
AcDbProxyObject
 90
      499
 91
      525
 93
      399
310
40908CEE7B2CDD6CAC1BFB90CE4D6C8BE20363020B7D6D6D341103405014F102408000000000000084000000000000002102
  0
ACAD_PROXY_OBJECT
  5
713
102
{ACAD_REACTORS
330
70D
102
}
330
70D
100
AcDbProxyObject
 90
      499
 91
      525
 93
      423
310
40908D2B9BCE4D6CAC1BFB90CE4D6C8BE20313220D0A1CAB1415034050134008000102408000000000000084000000000000002102
  0
ACAD_PROXY_OBJECT
  5
70F
102
{ACAD_REACTORS
330
70D
102
}
330
70D
100
AcDbProxyObject
 90
      499
 91
      525
 93
      383
310
40902D6D0B911D3A6D3C3203520B8F6E4D6C8BEBCB6B1F04050390540501408000000000000084000000000000002102
  0
ACAD_PROXY_OBJECT
  5
10D
102
{ACAD_REACTORS
330
10C
102
}
330
10C
100
AcDbProxyObject
 90
      499
 91
      507
 93
       41
310
903313A31580
  0
ACAD_PROXY_OBJECT
  5
1BE
102
{ACAD_REACTORS
330
10C
102
}
330
10C
100
AcDbProxyObject
 90
      499
 91
      507
 93
      105
310
903313A324000000000000004000
  0
ACAD_PROXY_OBJECT
  5
1BF
102
{ACAD_REACTORS
330
10C
102
}
330
10C
100
AcDbProxyObject
 90
      499
 91
      507
 93
      105
310
903313A344000000000000104000
  0
ACAD_PROXY_OBJECT
  5
1C0
102
{ACAD_REACTORS
330
10C
102
}
330
10C
100
AcDbProxyObject
 90
      499
 91
      507
 93
      105
310
903313A354000000000000144000
  0
ACAD_PROXY_OBJECT
  5
1C1
102
{ACAD_REACTORS
330
10C
102
}
330
10C
100
AcDbProxyObject
 90
      499
 91
      507
 93
      105
310
903313A384000000000000204000
  0
ACAD_PROXY_OBJECT
  5
1C2
102
{ACAD_REACTORS
330
10C
102
}
330
10C
100
AcDbProxyObject
 90
      499
 91
      507
 93
      113
310
904313A31304000000000000244000
  0
ACAD_PROXY_OBJECT
  5
1C3
102
{ACAD_REACTORS
330
10C
102
}
330
10C
100
AcDbProxyObject
 90
      499
 91
      507
 93
      113
310
904313A31364000000000000304000
  0
ACAD_PROXY_OBJECT
  5
1C4
102
{ACAD_REACTORS
330
10C
102
}
330
10C
100
AcDbProxyObject
 90
      499
 91
      507
 93
      113
310
904313A32304000000000000344000
  0
ACAD_PROXY_OBJECT
  5
1C5
102
{ACAD_REACTORS
330
10C
102
}
330
10C
100
AcDbProxyObject
 90
      499
 91
      507
 93
      113
310
904313A333040000000000003E4000
  0
ACAD_PROXY_OBJECT
  5
1C6
102
{ACAD_REACTORS
330
10C
102
}
330
10C
100
AcDbProxyObject
 90
      499
 91
      507
 93
      113
310
904313A34304000000000000444000
  0
ACAD_PROXY_OBJECT
  5
1C7
102
{ACAD_REACTORS
330
10C
102
}
330
10C
100
AcDbProxyObject
 90
      499
 91
      507
 93
      113
310
904313A35304000000000000494000
  0
ACAD_PROXY_OBJECT
  5
1C8
102
{ACAD_REACTORS
330
10C
102
}
330
10C
100
AcDbProxyObject
 90
      499
 91
      507
 93
      121
310
905313A3130304000000000000594000
  0
ACAD_PROXY_OBJECT
  5
1C9
102
{ACAD_REACTORS
330
10C
102
}
330
10C
100
AcDbProxyObject
 90
      499
 91
      507
 93
      105
310
903323A310000000000000010100
  0
ACAD_PROXY_OBJECT
  5
1CA
102
{ACAD_REACTORS
330
10C
102
}
330
10C
100
AcDbProxyObject
 90
      499
 91
      507
 93
      105
310
903343A310000000000000410100
  0
ACAD_PROXY_OBJECT
  5
1CB
102
{ACAD_REACTORS
330
10C
102
}
330
10C
100
AcDbProxyObject
 90
      499
 91
      507
 93
      105
310
903383A310000000000000810100
  0
ACAD_PROXY_OBJECT
  5
1CC
102
{ACAD_REACTORS
330
10C
102
}
330
10C
100
AcDbProxyObject
 90
      499
 91
      507
 93
      113
310
90431303A310000000000000910100
  0
ACAD_PROXY_OBJECT
  5
1CD
102
{ACAD_REACTORS
330
10C
102
}
330
10C
100
AcDbProxyObject
 90
      499
 91
      507
 93
      121
310
9053130303A310000000000001650100
  0
ACAD_PROXY_OBJECT
  5
21A
102
{ACAD_REACTORS
330
219
102
}
330
219
100
AcDbProxyObject
 90
      499
 91
      515
 93
     2015
310
9084D657472696335304B360000000000000A2060000000000000A202209258409E5840A25840A65840B05840B40000000000001220233A65800000000000028800000000000000A2060000000000000A2040000000000001720202AC929E2E20B1AB30B9102B34B2BBA9B2B1BA34B7B729BA30B93A24B21F1296929E2E20B
310
1AB30B9102B34B2BBA9B2B1BA34B7B722B73224B21F129014129E2E20B1AB30B9102B34B2BBA9B1B0B632902E33101112B9B7111F1294E0080A0C829CA6926662C400000000000002204000000000000022020D0305A88A9F643F27E32B9969C2960E81F87FA0718D4DE3E87E32B9969C2960E85F9E5129FC49EA5FA7E
340
11
340
0
340
0
340
16
340
16
340
11
 94
        0
  0
ACAD_PROXY_OBJECT
  5
F5
102
{ACAD_REACTORS
330
EF
102
}
330
EF
100
AcDbProxyObject
 90
      499
 91
      506
 93
      444
310
42CC9915DA5C99599C985B59504902404333333333333E33F0000000000000F90107901411070040501600405405064090741402480A0340
1001
ACAD
1000
AcDbSavedByObjectVersion
1070
     0
  0
ACAD_PROXY_OBJECT
  5
F4
102
{ACAD_REACTORS
330
EF
102
}
330
EF
100
AcDbProxyObject
 90
      499
 91
      506
 93
      388
310
4150985CDA58D07406404333333333333E33F0000000000000F90107A41107004050150841D405064090741402480A0350
1001
ACAD
1000
AcDbSavedByObjectVersion
1070
     0
  0
ACAD_PROXY_OBJECT
  5
FB
102
{ACAD_REACTORS
330
EF
102
}
330
EF
100
AcDbProxyObject
 90
      499
 91
      506
 93
      436
310
42109C9A59DA1D195B90C40902404333333333333E33F0000000000000F9010790141107004050150841D405064090741402480A029950
1001
ACAD
1000
AcDbSavedByObjectVersion
1070
     0
  0
ACAD_PROXY_OBJECT
  5
FF
102
{ACAD_REACTORS
330
EF
102
}
330
EF
100
AcDbProxyObject
 90
      499
 91
      506
 93
      452
310
42D0DBDB1BDC90DA185B99D95104090240C333333333333E33F0000000000000F90108901411070040501508421405064090741402480A0350
1001
ACAD
1000
AcDbSavedByObjectVersion
1070
     0
  0
ACAD_PROXY_OBJECT
  5
F8
102
{ACAD_REACTORS
330
EF
102
}
330
EF
100
AcDbProxyObject
 90
      499
 91
      506
 93
      508
310
4290DBDB98D95C1D1D585B10940D02404333333333333E33F0000000000000F90107902409070040501000000000000111010841D405064090740C02480A0340
1001
ACAD
1000
AcDbSavedByObjectVersion
1070
     0
  0
ACAD_PROXY_OBJECT
  5
FA
102
{ACAD_REACTORS
330
EF
102
}
330
EF
100
AcDbProxyObject
 90
      499
 91
      506
 93
      420
310
40D11A5B50B40902404333333333333E33F0000000000000F9010790141107004050150841D405064090741402480A02677FFFFFD0
1001
ACAD
1000
AcDbSavedByObjectVersion
1070
     0
  0
ACAD_PROXY_OBJECT
  5
1E6
102
{ACAD_REACTORS
330
EF
102
}
330
EF
100
AcDbProxyObject
 90
      499
 91
      506
 93
      452
310
43115919D950DBDB1BDC93D999916409028333333333333E33F0000000000000F9010790141107004050150841D405064090741402480A0350
1001
ACAD
1000
AcDbSavedByObjectVersion
1070
     0
  0
ACAD_PROXY_OBJECT
  5
FE
102
{ACAD_REACTORS
330
EF
102
}
330
EF
100
AcDbProxyObject
 90
      499
 91
      506
 93
      452
310
42D19858D95C185D1D195C9B90F40902404333333333333E33F0000000000000F9010790141107004050150841D405064090741402480A0350
1001
ACAD
1000
AcDbSavedByObjectVersion
1070
     0
  0
ACAD_PROXY_OBJECT
  5
F0
102
{ACAD_REACTORS
330
EF
102
}
330
EF
100
AcDbProxyObject
 90
      499
 91
      506
 93
      380
310
41119B185D240901404333333333333E33F0000000000000F9010740A907004050150841D405064090741402480A1B50
1001
ACAD
1000
AcDbSavedByObjectVersion
1070
     0
  0
ACAD_PROXY_OBJECT
  5
F1
102
{ACAD_REACTORS
330
EF
102
}
330
EF
100
AcDbProxyObject
 90
      499
 91
      506
 93
      468
310
43519B185D15DA5D1A115919D95CD0140901404333333333333E33F0000000000000F90107409019070040501600405405064090741402480A1B50
1001
ACAD
1000
AcDbSavedByObjectVersion
1070
     0
  0
ACAD_PROXY_OBJECT
  5
F2
102
{ACAD_REACTORS
330
EF
102
}
330
EF
100
AcDbProxyObject
 90
      499
 91
      506
 93
      404
310
41D1DBDD5C985D5910240902404333333333333E33F0000000000000F9010740A9070040501641D405064090741402480A1B50
1001
ACAD
1000
AcDbSavedByObjectVersion
1070
     0
  0
ACAD_PROXY_OBJECT
  5
F3
102
{ACAD_REACTORS
330
EF
102
}
330
EF
100
AcDbProxyObject
 90
      499
 91
      506
 93
      492
310
4411DBDD5C985D5915DA5D1A115919D95CD0340902404333333333333E33F0000000000000F90107409019070040501600405405064090741402480A1B50
1001
ACAD
1000
AcDbSavedByObjectVersion
1070
     0
  0
ACAD_PROXY_OBJECT
  5
F7
102
{ACAD_REACTORS
330
EF
102
}
330
EF
100
AcDbProxyObject
 90
      499
 91
      506
 93
      476
310
41921A5919195B90640502408333333333333E33F0000000000000F901079024090700405020000000000001110200405405064090740C02480A0340
1001
ACAD
1000
AcDbSavedByObjectVersion
1070
     0
  0
ACAD_PROXY_OBJECT
  5
1E4
102
{ACAD_REACTORS
330
EF
102
}
330
EF
100
AcDbProxyObject
 90
      499
 91
      506
 93
      428
310
42529A5D1D195C93D999914409028333333333333E33F0000000000000F9010790141107004050150A41D405064090741402480A0350
1001
ACAD
1000
AcDbSavedByObjectVersion
1070
     0
  0
ACAD_PROXY_OBJECT
  5
FD
102
{ACAD_REACTORS
330
EF
102
}
330
EF
100
AcDbProxyObject
 90
      499
 91
      506
 93
      452
310
42D31A5B995C185D1D195C9B90E40902404333333333333E33F0000000000000F9010790141107004050750841D405064090741402483A0350
1001
ACAD
1000
AcDbSavedByObjectVersion
1070
     0
  0
ACAD_PROXY_OBJECT
  5
1E5
102
{ACAD_REACTORS
330
EF
102
}
330
EF
100
AcDbProxyObject
 90
      499
 91
      506
 93
      444
310
42D3DD995C9A185B99D3D999915409028333333333333E33F0000000000000F9010790141107004050150941D405064090741402480A0350
1001
ACAD
1000
AcDbSavedByObjectVersion
1070
     0
  0
ACAD_PROXY_OBJECT
  5
F9
102
{ACAD_REACTORS
330
EF
102
}
330
EF
100
AcDbProxyObject
 90
      499
 91
      506
 93
      428
310
425499585B1A5CDD1A58D08409038333333333333E33F0000000000000F9010740A907004050150800405405064090740C02480A1B40
1001
ACAD
1000
AcDbSavedByObjectVersion
1070
     0
  0
ACAD_PROXY_OBJECT
  5
1F3
102
{ACAD_REACTORS
330
EF
102
}
330
EF
100
AcDbProxyObject
 90
      499
 91
      506
 93
      420
310
4194DA1859195911B40902404333333333333E33F0000000000000F9010740A41107004050150800405405064090840C02480A0B40
1001
ACAD
1000
AcDbSavedByObjectVersion
1070
     0
  0
ACAD_PROXY_OBJECT
  5
1F2
102
{ACAD_REACTORS
330
EF
102
}
330
EF
100
AcDbProxyObject
 90
      499
 91
      506
 93
      516
310
4454DA18591959081DDA5D1A08195919D95CD1A40902404333333333333E33F0000000000000F901074090140907004050250800405405064090740C02480A0B40
1001
ACAD
1000
AcDbSavedByObjectVersion
1070
     0
  0
ACAD_PROXY_OBJECT
  5
1EF
102
{ACAD_REACTORS
330
EF
102
}
330
EF
100
AcDbProxyObject
 90
      499
 91
      506
 93
      532
310
4394DA1859195CC81BD98811DC985E5174090240C333333333333E33F0000000000000F901079024090741D01000000000000111010841D405064090740C02480A0340
1001
ACAD
1000
AcDbSavedByObjectVersion
1070
     0
  0
ACAD_PROXY_OBJECT
  5
1F0
102
{ACAD_REACTORS
330
EF
102
}
330
EF
100
AcDbProxyObject
 90
      499
 91
      506
 93
      476
310
41D4DAD95D18DA1E51840502408333333333333E33F0000000000000F901079024090741D01000000000000111010B41D405064090741802480A0340
1001
ACAD
1000
AcDbSavedByObjectVersion
1070
     0
  0
ACAD_PROXY_OBJECT
  5
FC
102
{ACAD_REACTORS
330
EF
102
}
330
EF
100
AcDbProxyObject
 90
      499
 91
      506
 93
      420
310
41D51A1A58DAD95B90D40902404333333333333E33F0000000000000F9010790141107004050150C41D405064090741402480A0350
1001
ACAD
1000
AcDbSavedByObjectVersion
1070
     0
  0
ACAD_PROXY_OBJECT
  5
F6
102
{ACAD_REACTORS
330
EF
102
}
330
EF
100
AcDbProxyObject
 90
      499
 91
      506
 93
      420
310
4255DA5C99599C985B595059028333333333333E33F0000000000000F90107901411070040501600405405064090740C02480A0340
1001
ACAD
1000
AcDbSavedByObjectVersion
1070
     0
  0
ACAD_PROXY_OBJECT
  5
1F1
102
{ACAD_REACTORS
330
EF
102
}
330
EF
100
AcDbProxyObject
 90
      499
 91
      506
 93
      404
310
41560B54985E51940902404000000000000E03F0000000000000F9010740501907004050150841D405064090740C02480A1B40
1001
ACAD
1000
AcDbSavedByObjectVersion
1070
     0
  0
XRECORD
  5
EFE
102
{ACAD_REACTORS
330
EF4
102
}
330
EF4
100
AcDbXrecord
340
0
  0
XRECORD
  5
EFD
102
{ACAD_REACTORS
330
EF4
102
}
330
EF4
100
AcDbXrecord
 90
        0
  0
XRECORD
  5
F17
102
{ACAD_REACTORS
330
EF4
102
}
330
EF4
100
AcDbXrecord
340
6B
  0
XRECORD
  5
F14
102
{ACAD_REACTORS
330
EF4
102
}
330
EF4
100
AcDbXrecord
1000
DSTYLE
1002
{
1070
   340
340
11
1002
}
  0
XRECORD
  5
EFF
102
{ACAD_REACTORS
330
EF4
102
}
330
EF4
100
AcDbXrecord
  1
{98032859-CDE6-2B48-B5C5-C750E6016F1C}
  0
XRECORD
  5
EF7
102
{ACAD_REACTORS
330
EF4
102
}
330
EF4
100
AcDbXrecord
  1

  0
XRECORD
  5
EFC
102
{ACAD_REACTORS
330
EF4
102
}
330
EF4
100
AcDbXrecord
 90
        4
  0
XRECORD
  5
EF9
102
{ACAD_REACTORS
330
EF4
102
}
330
EF4
100
AcDbXrecord
340
1A
  0
XRECORD
  5
EFB
102
{ACAD_REACTORS
330
EF4
102
}
330
EF4
100
AcDbXrecord
 90
    10781
  0
XRECORD
  5
F18
102
{ACAD_REACTORS
330
EF4
102
}
330
EF4
100
AcDbXrecord
340
6A
  0
XRECORD
  5
EFA
102
{ACAD_REACTORS
330
EF4
102
}
330
EF4
100
AcDbXrecord
340
19
  0
XRECORD
  5
F01
102
{ACAD_REACTORS
330
EF4
102
}
330
EF4
100
AcDbXrecord
 40
0.0
  0
XRECORD
  5
F04
102
{ACAD_REACTORS
330
EF4
102
}
330
EF4
100
AcDbXrecord
340
0
  0
XRECORD
  5
F0A
102
{ACAD_REACTORS
330
EF4
102
}
330
EF4
100
AcDbXrecord
 10
0.0
 20
0.0
 30
0.0
  0
XRECORD
  5
F06
102
{ACAD_REACTORS
330
EF4
102
}
330
EF4
100
AcDbXrecord
 10
0.0
 20
0.0
 30
0.0
  0
XRECORD
  5
F09
102
{ACAD_REACTORS
330
EF4
102
}
330
EF4
100
AcDbXrecord
 10
0.0
 20
0.0
 30
0.0
  0
XRECORD
  5
F07
102
{ACAD_REACTORS
330
EF4
102
}
330
EF4
100
AcDbXrecord
 10
0.0
 20
0.0
 30
0.0
  0
XRECORD
  5
F08
102
{ACAD_REACTORS
330
EF4
102
}
330
EF4
100
AcDbXrecord
 10
0.0
 20
0.0
 30
0.0
  0
XRECORD
  5
F05
102
{ACAD_REACTORS
330
EF4
102
}
330
EF4
100
AcDbXrecord
 10
0.0
 20
0.0
 30
0.0
  0
XRECORD
  5
F02
102
{ACAD_REACTORS
330
EF4
102
}
330
EF4
100
AcDbXrecord
340
0
  0
XRECORD
  5
F03
102
{ACAD_REACTORS
330
EF4
102
}
330
EF4
100
AcDbXrecord
 70
     0
  0
XRECORD
  5
EF8
102
{ACAD_REACTORS
330
EF4
102
}
330
EF4
100
AcDbXrecord
  1

  0
XRECORD
  5
EF5
102
{ACAD_REACTORS
330
EF4
102
}
330
EF4
100
AcDbXrecord
 90
        1
  0
XRECORD
  5
EF6
102
{ACAD_REACTORS
330
EF4
102
}
330
EF4
100
AcDbXrecord
 90
       70
  0
XRECORD
  5
F0D
102
{ACAD_REACTORS
330
EF4
102
}
330
EF4
100
AcDbXrecord
340
0
  0
XRECORD
  5
F13
102
{ACAD_REACTORS
330
EF4
102
}
330
EF4
100
AcDbXrecord
 10
0.0
 20
0.0
 30
0.0
  0
XRECORD
  5
F0F
102
{ACAD_REACTORS
330
EF4
102
}
330
EF4
100
AcDbXrecord
 10
0.0
 20
0.0
 30
0.0
  0
XRECORD
  5
F12
102
{ACAD_REACTORS
330
EF4
102
}
330
EF4
100
AcDbXrecord
 10
0.0
 20
0.0
 30
0.0
  0
XRECORD
  5
F10
102
{ACAD_REACTORS
330
EF4
102
}
330
EF4
100
AcDbXrecord
 10
0.0
 20
0.0
 30
0.0
  0
XRECORD
  5
F11
102
{ACAD_REACTORS
330
EF4
102
}
330
EF4
100
AcDbXrecord
 10
0.0
 20
0.0
 30
0.0
  0
XRECORD
  5
F0E
102
{ACAD_REACTORS
330
EF4
102
}
330
EF4
100
AcDbXrecord
 10
0.0
 20
0.0
 30
0.0
  0
XRECORD
  5
F0B
102
{ACAD_REACTORS
330
EF4
102
}
330
EF4
100
AcDbXrecord
340
0
  0
XRECORD
  5
F0C
102
{ACAD_REACTORS
330
EF4
102
}
330
EF4
100
AcDbXrecord
 70
     0
  0
XRECORD
  5
F00
102
{ACAD_REACTORS
330
EF4
102
}
330
EF4
100
AcDbXrecord
  1
{34D6327A-EBF1-064A-A17A-83764B119CCB}
  0
DICTIONARYVAR
  5
146
102
{ACAD_REACTORS
330
5E
102
}
330
5E
100
DictionaryVariables
280
     0
  1
1:1
  0
DICTIONARYVAR
  5
259
102
{ACAD_REACTORS
330
5E
102
}
330
5E
100
DictionaryVariables
280
     0
  1
3.500000
  0
DICTIONARYVAR
  5
25A
102
{ACAD_REACTORS
330
5E
102
}
330
5E
100
DictionaryVariables
280
     0
  1
acadiso.lin
  0
DICTIONARYVAR
  5
145
102
{ACAD_REACTORS
330
5E
102
}
330
5E
100
DictionaryVariables
280
     0
  1
Standard
  0
DICTIONARYVAR
  5
84
102
{ACAD_REACTORS
330
5E
102
}
330
5E
100
DictionaryVariables
280
     0
  1
Standard
  0
DICTIONARYVAR
  5
227
102
{ACAD_REACTORS
330
5E
102
}
330
5E
100
DictionaryVariables
280
     0
  1
Metric50
  0
DICTIONARYVAR
  5
228
102
{ACAD_REACTORS
330
5E
102
}
330
5E
100
DictionaryVariables
280
     0
  1
Metric50
  0
DICTIONARYVAR
  5
5F
102
{ACAD_REACTORS
330
5E
102
}
330
5E
100
DictionaryVariables
280
     0
  1
2
  0
DICTIONARYVAR
  5
63
102
{ACAD_REACTORS
330
5E
102
}
330
5E
100
DictionaryVariables
280
     0
  1
1
  0
DICTIONARYVAR
  5
1AE
102
{ACAD_REACTORS
330
5E
102
}
330
5E
100
DictionaryVariables
280
     0
  1
0
  0
DICTIONARYVAR
  5
1AF
102
{ACAD_REACTORS
330
5E
102
}
330
5E
100
DictionaryVariables
280
     0
  1
0
  0
DICTIONARYVAR
  5
F2B
102
{ACAD_REACTORS
330
5E
102
}
330
5E
100
DictionaryVariables
280
     0
  1
1
  0
DICTIONARYVAR
  5
F16
102
{ACAD_REACTORS
330
5E
102
}
330
5E
100
DictionaryVariables
280
     0
  1
80.000000
  0
DICTIONARYVAR
  5
F15
102
{ACAD_REACTORS
330
5E
102
}
330
5E
100
DictionaryVariables
280
     0
  1
5.000000
  0
ACAD_PROXY_OBJECT
  5
E72
102
{ACAD_REACTORS
330
E71
102
}
330
E71
100
AcDbProxyObject
 90
      499
 91
      529
 93
       67
310
40A40AAAA46D08FF80
330
D74
360
0
360
DC2
360
DE7
360
DE8
360
DE9
360
DEA
360
DEB
360
DEC
360
DED
 94
        0
1001
ACAD
1000
AcadProxyRoundTripData
1071
      524
1071
 11403297
1070
     0
  0
DICTIONARY
  5
1F9
330
ED
100
AcDbDictionary
280
     1
  3
ACAD_XREC_ROUNDTRIP
360
F2C
  3
FBXASSET
360
1FA
  0
DICTIONARY
  5
1F7
330
EC
100
AcDbDictionary
280
     1
  3
ACAD_XREC_ROUNDTRIP
360
F2D
  3
FBXASSET
360
1F8
  0
DICTIONARY
  5
173
330
EE
100
AcDbDictionary
280
     1
  3
ACAD_XREC_ROUNDTRIP
360
F2E
  3
FBXASSET
360
1FB
  0
ACAD_PROXY_OBJECT
  5
DC2
330
E72
100
AcDbProxyObject
 90
      499
 91
      529
 93
    24365
310
40A40966AA90200171ED8C448E428000589918FB0711A04D4C8E94202000144357C2028690243881A1E409102068890444882A28405152048B10345C8123040D192088D10546C8227C40544204A29035188128E40D4820CA4907528842964094C206A690253881A9E40950212A890A54885AA642D54216AA90B558812AE40D
310
58218AC90256881AB64315C21AAE9015D8812EE40D78204BC9035E8822F64197C202C910264C81B2840995206CB10265C81B3043199204CD10366C863384359D20CCF1086B48135C40DAF204D81036C481364425B3214DA10171C8139040DC9204E510372C83398405CD204E710373C813A040DD120AE910174C813A840DD5
310
204EB10375C82BB0405D9204ED10376C813B840DDD20CEF10177C813C040DE1204F110378C833C8435E8210F49027A881BD6409EC206F69027B884BDE429F0208FD1017EC813F840DFD204FF1037FC8300002000042C010100002160100800010B00C04000080808020000408050100002060300800010201C040000818100
310
20000434090100004350643D114514A56D5C018E0485FFB19C368402002817FD8A417D026870242FFD8CE1B420100140BFEC520BE81101A62BE185F6D280400502FFB1482FA048720487AAA03001FFFFFFFE86A1E8121C86805A2081222AA00C027FFFFFFFA1A88A048821A0168940154D22880A1A0128922A8322E8CA36A5
310
2B0AC80C70242FFD8CE1B4200810B04FE63D0C48134381217FEC670DA1004085827F31E86240880D315F0C2FB69401021609FCC7A189024590245D5601800FFFFFFFF455174091645402D184091954C06013FFFFFFFD15465024611500B46A00A100CE8C080000E502691B405150094693E802AA6511035194852406381217
310
FEC670DA1004085827F31E86240A0000000000003C2FE1C090BFF63386D0802042C13F98F43120470242FFD8CE1B420100140BFEC520BE8128A8128CAB00C007FFFFFFFA88A3204A2A88016A3A04A42AA03009FFFFFFFEA22908128EA2005A9280A880129F2948122A86804A968229AA7AA2A900C585C65EF2A18B9A00810B
310
04FE62B0C28152D0000000000000B2810305A88A9F6423281121A62BE185F6D28041C2C13F98F43120447E98AF8617DB4A01FC120BFEC520BE812988129AA980C007FFFFFFFA96A6A04A6296016A7204A7AA803009FFFFFFFEA5A9E8129CA5805AA080AA203019FFFFFFFEA5AA2812A0A5805AA480A9601200A9A048C29801
310
2AA204A7220012AAA04A3A1C012AB204A2A2C012ABA06AC2B2AE80C047FFFFFFFA2AAC204ABA2A016ACA04ABA2A016AD206ADAB8AE80C047FFFFFFFA1AADA04AD21A016AE204AD21A016AEA04ABAB40120332EC82AF0BD2F8CDB38030A00C67A14C8CC28038689D5FC3242C2050000000000001E17F0500633D0A64661401C
310
344EAFE1921610214018CF429919850010C7C0B94C3D55409774057801800FFFFFFFF5D978409775D802D794097A00804000006013FFFFFFFD765E9025E57600B5EE0080000D83EDAD7743F2030BC112980CE102997C405760095ED9241594659986659E018500633D0A6C66340180333F37D12961028000000000000F0BF8
310
280319E8536331A00C0199F9BE894B0810A00C67A14D8CC680303E47B40BFF2AA04C9A02CA00C007FFFFFFFB24CA204C9B24016CAA04CB00202000003009FFFFFFFEC932C8132AC9005B2E81B30CCB3A03011FFFFFFFEC93308132EC9005B328132EC9005B3481B36CE33A03011FFFFFFFEBB33681334BB005B3881334BB00
310
5B3A8132ECD00480B4CF202C9004A7CD6A08D7B62D9B6803021BC1FA79EC0C880003BF987E96993E054B40000000000002CA040C16A22A7D908CA04280319E8536331A00C2F71ED02FFCAA810AE0C67A14C8CC2800FE3E05CA61EAAA04D7204D780202000003001FFFFFFFED6B5E8135CD6805B60813620180800000C027FF
310
FFFFFB5AD8A04D835A016D9202D980C067FFFFFFFB5AD9A04D935A016DA202D68048038E81B92E5B98031C00E2D3478F6C4803870821D9BA2B1A050000000000001E17F0E007169A3C7B62401C38410ECDD158D023801C5A68F1ED890050D2E317026953409C8405C901800FFFFFFFF71DC9409C871C02DCA405CB01804FFF
310
FFFFF71DCB409CA71C02DCC405C70094F9CD40DCF745D201800C9E76E583B61402002817FD8A417D02680064F3B72C1DB0A0100140BFEC520BE8100193CEDCB176C680400502FFB1482FA04E7202E780C007FFFFFFFB9AE7A04E739A016E8202E880C027FFFFFFFB9AE8A04E839A016E9202E6804A24E9A06EABAEEC00C006
310
4F3B72C1DB0A00810B04FE63D0C48134003279DB960ED85004085827F31E86240800C9E76E58BB63401021609FCC7A189027510175406003FFFFFFFDD375502751D300B7590175C06013FFFFFFFDD375D02759D300B7610174C025127650376DDD77806003279DB960ED8500800A05FF62905F40A600193CEDCB076C280400
310
502FFB1482FA040064F3B72C1DB0A00810B04FE63D0C4813B480BB603001FFFFFFFEECBB6813B4EC805BB8813BAF400C027FFFFFFFBB2EEA04EE3B2016EF202EC804A7CEFA06F0BC6F200C0064F3B72C5DB1A00810B04FE63D0C4814000000000000785FC003279DB962ED8D004085827F31E86240800C9E76E58BB6340200
310
2817FD8A417D0278102785E801800FFFFFFFF77DE1409E077C02DE2405E301804FFFFFFFF77DE3409E277C02DE4405DF0094F9E8409DC78002404000000000000F0BFA7A5047ADED7BDF0018500633D0A6666440201D0A41B2AEC9F02A5A00000000000016502060B51153EC8465020D018CF429A199D0018C7C0B94C3D554
310
086C0633D0A64661400631F02E530F555027A9017AC06003FFFFFFFDE97AD027A9E900B7B1047B40201000000C0400000901000001804FFFFFFFF7A5ED409EC7A402DEE405EF0180CFFFFFFFF7A5EF409EE7A402DF0405E9009007EA008405BF48B3C4E44402030BEB8C01249F0299FB40DFD7FC00010000018500633D0A66
310
66440242C58B150BED61028000000000000F0BF8280319E85333322012162C58A85F6B0810A00C67A14CCCC880000D05565AFDA9204FE202FE80C007FFFFFFFBF6FEA04FE3F6016FF202FF80C027FFFFFFFBF6FFA04FF3F601600008000202FD804BF400808000204D732A01201008000204F62F201201808000204D83D801
310
202008000204030080000100200000300193CEDCB076C280080CBCEC68A42C204D000C9E76E583B614004065E76345216102003279DB962ED8D00101979D8D14858408050100004080601000002404000006003FFFFFFFC04010000018040001020140400000401000000B01C0400010102004000006013FFFFFFFC0401000
310
00200400010201C0400000401000000B02404000102014040001EC0090199184100630043006F006E00730074007200610069006E006500640042006F0075006E006400650064004C0069006E00650046904018C010C01BC01B801CC01D001C8018401A401B801940190012401B401C001B001A4018C01A401D0014001BC01
310
A401B801D001164100630050006F0069006E0074004300750072007600650043006F006E00730074007200610069006E00740045904018C010C01BC01B801CC01D001C8018401A401B8019401900110018401D001D401B4013001A401B8019401164100630048006F00720069007A006F006E00740061006C0043006F006E0
310
0730074007200610069006E00740045104018C0158019401C801D001A4018C018401B0010C01BC01B801CC01D001C8018401A401B801D001174100630045007100750061006C004C0065006E0067007400680043006F006E00730074007200610069006E00740044104018C010C01BC01B801CC01D001C8018401A401B8019
310
40190010401C8018C011741006300430065006E0074006500720050006F0069006E00740043006F006E00730074007200610069006E00740046904018C01480184019001A401D401CC011001A4018401B4019401D0019401C8010C01BC01B801CC01D001C8018401A401B801D0011C4100630050006F0069006E0074004300
310
6F0069006E0063006900640065006E006300650043006F006E00730074007200610069006E00740045104018C013401A40190014001BC01A401B801D0010C01BC01B801CC01D001C8018401A401B801D0011441006300440069007300740061006E006300650043006F006E00730074007200610069006E007400C2128
330
E72
360
0
360
0
360
DD7
360
DCB
360
DCF
360
DD1
360
DC9
360
DCD
360
DC3
360
DC7
360
DD4
360
DC8
360
DD2
360
DD6
360
DCA
360
DC4
360
DC5
360
DC6
360
DE2
360
DDE
360
DDA
360
DE5
360
DE1
360
DD9
360
DE4
360
DE0
360
DDC
360
DD8
360
DE3
360
DDF
360
DDB
330
DDA
330
0
330
0
330
0
330
DC3
330
0
330
0
330
0
330
0
330
DC9
330
0
330
0
330
DD9
330
0
330
0
330
0
340
DDF
340
DD2
330
0
330
0
340
DD6
340
DCF
330
DE0
330
0
330
0
330
0
330
DDB
330
0
330
0
330
0
330
0
340
DD8
340
DDC
330
DC7
330
0
330
0
330
0
340
DCA
340
DCD
330
DC6
330
0
330
0
330
DE4
330
0
330
0
330
DDE
330
0
330
0
330
DC4
330
0
330
0
330
DD7
330
0
330
0
340
DC8
340
DCB
330
DE2
330
0
330
0
330
0
340
DD1
340
DD4
330
0
330
DE1
330
0
330
0
330
DC5
330
0
330
0
340
DE3
340
DE5
 94
        0
1001
ACAD
1000
AcadProxyRoundTripData
1071
      518
1071
 11403297
1070
     0
  0
ACAD_PROXY_OBJECT
  5
DE7
102
{ACAD_REACTORS
330
DDF
102
}
330
E72
100
AcDbProxyObject
 90
      499
 91
      529
 93
      405
310
40A426AA90256964240D294E117CC8010331003000300043104018C01100188010C018401B0018C00E800C400B800C00240018
330
E72
360
0
 94
        0
1001
ACAD
1000
AcadProxyRoundTripData
1071
      523
1071
 11403297
1070
     0
  0
ACAD_PROXY_OBJECT
  5
DE8
102
{ACAD_REACTORS
330
DD6
102
}
330
E72
100
AcDbProxyObject
 90
      499
 91
      529
 93
      373
310
40A42AAA9025691924099000CC01023200350043104018C01100188010C018401B0018C00E800C400B800C00220018
330
E72
360
0
 94
        0
1001
ACAD
1000
AcadProxyRoundTripData
1071
      523
1071
 11403297
1070
     0
  0
ACAD_PROXY_OBJECT
  5
DE9
102
{ACAD_REACTORS
330
DD8
102
}
330
E72
100
AcDbProxyObject
 90
      499
 91
      529
 93
      373
310
40A442AA9025691424099000C801023200300043104018C01100188010C018401B0018C00E800C400B800C00220018
330
E72
360
0
 94
        0
1001
ACAD
1000
AcadProxyRoundTripData
1071
      523
1071
 11403297
1070
     0
  0
ACAD_PROXY_OBJECT
  5
DEA
102
{ACAD_REACTORS
330
DCA
102
}
330
E72
100
AcDbProxyObject
 90
      499
 91
      529
 93
      405
310
40A44EAA90256964240D294E117CC4010331003000300043104018C01100188010C018401B0018C00E800C400B800C00240018
330
E72
360
0
 94
        0
1001
ACAD
1000
AcadProxyRoundTripData
1071
      523
1071
 11403297
1070
     0
  0
ACAD_PROXY_OBJECT
  5
DEB
102
{ACAD_REACTORS
330
DC8
102
}
330
E72
100
AcDbProxyObject
 90
      499
 91
      529
 93
      373
310
40A45EAA9025691424099000C401023200300043104018C01100188010C018401B0018C00E800C400B800C00220018
330
E72
360
0
 94
        0
1001
ACAD
1000
AcadProxyRoundTripData
1071
      523
1071
 11403297
1070
     0
  0
ACAD_PROXY_OBJECT
  5
DEC
102
{ACAD_REACTORS
330
DD1
102
}
330
E72
100
AcDbProxyObject
 90
      499
 91
      529
 93
      405
310
40A462AA90256964240D294E117CCC010331003000300043104018C01100188010C018401B0018C00E800C400B800C00240018
330
E72
360
0
 94
        0
1001
ACAD
1000
AcadProxyRoundTripData
1071
      523
1071
 11403297
1070
     0
  0
ACAD_PROXY_OBJECT
  5
DED
102
{ACAD_REACTORS
330
DE3
102
}
330
E72
100
AcDbProxyObject
 90
      499
 91
      529
 93
      477
310
40A46EAA9024A05C8FC2F5285C284024099000D00105310032002E003100380043104018C01100188010C018401B0018C00E800C400B800C00250018
330
E72
360
0
 94
        0
1001
ACAD
1000
AcadProxyRoundTripData
1071
      523
1071
 11403297
1070
     0
  0
XRECORD
  5
F2C
102
{ACAD_REACTORS
330
1F9
102
}
330
1F9
100
AcDbXrecord
102
MATERIAL
148
0.0
149
0.0
149
0.0
 93
        0
 94
       63
282
     0
 72
     1
 77
     1
171
     1
175
     1
179
     1
273
     0
  0
XRECORD
  5
1FA
102
{ACAD_REACTORS
330
1F9
102
}
330
1F9
100
AcDbXrecord
 70
     1
 90
429727718
  1
D62C5603-E3A1-4AEA-B7FB-FE5D8D0755AF
310
504B03040A0000080000CC70623B3DEE336E79000000790000001B0000006175746F6465736B2D64657369676E2D7061636B6167652E786D6C3C3F786D6C2076657273696F6E3D22312E302220656E636F64696E673D227574662D3822203F3E3C666F726D6174733E3C666F726D61743E687474703A2F2F736368656D612E
310
6175746F6465736B2E636F6D2F64657369676E2D7061636B6167652F323030393C2F666F726D61743E3C2F666F726D6174733E504B0304140006080800CC70623BD486FD9CA0000000F4000000130000005B436F6E74656E745F54797065735D2E786D6C7D8EC10E82300C865F65E91D8A1E8C310C0EEA1BF002731658846E
310
D98AC1B77784ABF1D8FE5FBFBF75BBCE937A534CCEB38643598122B6FEE978D0B0485F9C41B54DDD7D022595594E1A469170414C76A4D9A4D207E29CF43ECE46F218070CC6BECC4078ACAA135ACF422C856C0E68EA1BF5669944DDD7BCDE7B1F8E415D77AECB980613C2E4AC91FC167A2B244592486606FC29C8FD7F045B9A
310
EF7053A7E60B504B0304140006080800CC70623B853B8169EB0000007C01000008000000636F72652E786D6C8D90416EC3201045AF62CDB6C206821CC7C244919D9CA01740401C94182C03558F5F9C3852BBEB6A467FFE9B197D7EFC9E1EC5975982F5AE035262288C535E5B377690E21535501C055FBC8FBF6C503839990E
310
5619041F179FE64D52DE45E362569DD7661365082642A11EB9E920A89B99642953CC8E702F67A9EE7234257977194EC9EAE275C4EABCCF5EAD5940D4AC6F0E35A568B8F43562CD7046CD199FD07E60174276A7BE677B5EADB0E0D14EEFFB6A31321A0D82627C4084204C3F096B71DD52F6819B16635EADF63F509AF53FA164
310
5DDCD1EDDD17164090FCC8732078B56691CB33A85CD7DCC40F504B0304140006080800CC70623B55019EA25F0000007C00000007000000636E782E786D6C4DCB3B0E80201045D1AD90E915ED2CF8AC45050C11660C8261F98AB1B07AC9C97D42D718D865D3E909258CFD00CCE24AC6E326A164D74DC0B4128928FF32603847
310
2BA13128B1252AC747C6BAB984FC68F0B87FE8960A5C09FE86CFB69FBA01504B0304140006080800CC70623BDBABAAF470010000D40300000C0000006662782F636F72652E786D6CC553D16E823014FD95A6AF4B694182CC941A83FA05FB810A9511A125A5257EFE2E82712ECEB8A7F100CD39F7F69E734AF9FADC366850B6
310
AF8DCE7018308C942E4C59EB2AC3DE1D498AD15A706B8CFB56869196ADCAF00863C12B6B7C374385D14E6907A836A59A41D9F7CA615434B0C8705F7CAA5606D23BA8E84F41278B93AC54100640439DE0BDB320004D43C63716C7C399D30917DCFBBA9CD9BA8469F5B156168B24CED3F7248AC8769F27244EB73B92EED8862C
310
B7F13E0C179B3C8F979C8ECD82BBBABDAA2BAC924E9558448CBD9330242CFA08E3154B5651FCC6D215639C8EE5774DBE2B5F6CF2B5768B68963BB5F5588420E442FC700B1139D4CB01F450C1E918227C2E09DF070D8140C84E1E9AAB8F1340832A9CB13130A5F1376A908D57309505ECF2A0DF179C4E9D30F5B239B87E3823
310
7A79C6F31DE1A8A5AEC08474B03C7837EAE4938639B44E5932B833D2C6B6B279CDC613877FA26EE21F4A2A4C63EC7F29A2F301D1F9F7A0E37D145F504B0304140006080800CC70623B9C113CC27E0000009D0000000B0000006662782F636E782E786D6C4DCCDF0A83201C86E15B91DFB94BFB330DD428C8FB886521330DA7
310
6397BF1A1DECE883878F57749FCDA1B7892F1BBC047A23808C7F84D9FA55424E0BE6803A256208E9EF06C84F9B91703228B1C690F78B66B34CD9A5439DF5CF0BFBF65E35BCA1B8D6A5C6F540381E886698B5741C695F9503EBA150A2F8958E3DC3EA0B504B0304140006080800CC70623B7DF2F77C2A010000120200003100
310
00006662782F41393633353835312D344632462D344230382D423046372D3739314545314133324237412F636F72652E786D6C8D51DB8EC22014FC15C2939B0D2DB4B45643319AE817EC0F6041255A68B86CFCFC856D4D76DF7CE190393373060EDB3DC707F856CE6B6B7A480A0C81328395DA5C7B18C3057510EC3873D686
310
3F34088C18550F330C39BB3A1BA7051AAC09CA84841A2BD5020AEF55806078A44B0FFD7053A328440C89E1EFC52486BBB8AA8214A99D789CF9E05200300FC927E4FB4D5B375D43103D5527440FB843077C5AA3F5861C8F645F5787F59E95B390B318B55CE45AA638FAA2957BD7248B390B7A7CC51F9C124149C82B8C378810
310
84AB2F42B7B8DD56F413775B8C5999E9FF4471926F8AA236A1AE96B8B3CC434E5839373893369E1FAF30EA395917409EB7F26AF8801C171837A4A6AC9C89E9F9C9B1A58BA30FD6A5EF5DDDCF894B9AD9B6A59C957943A9FCAE2FD5BC4DFE03504B0304140006080800CC70623BAD7543B64E01000033030000300000006662
310
782F41393633353835312D344632462D344230382D423046372D3739314545314133324237412F636E782E786D6CD593CD6EC32010845F0571AD6CE3D48AD20813A9873E410FBD12D82434182C7EAAE6EDBB2424CD25871E7B41D6EC30B3FA84F9E67BB2E40B4234DE8DB46F1925E094D7C6ED479AD3AE5951B2113C789FEE
310
6C943839C1488B4C05DF079FE72A69D8C96C13AAD6B8631503449F83828872B949AC57D26200B826A308D316B4064D6E46FCDA41C05550DC9E483A00797BFD207EFB092A45DE9514C1BBD22178396BD39D891265658C238DEA00936C654E5E433CB65A26D9F6EDB5EBC14EBF49A45CB856E66048291F6939A9A81BB5C89177
310
38143CA680F4AA299D66A042CEB3354A2684DC9D8D178FE0D9B8B41CAAD720F880EE7EF93C0C18769E099ECC04D5A102C8049A8A05632F4DDF376CF1DE0F6BB65C2F8627B65A33C6BB62177CEBBDAD973006829F89F22E814B54F4BC2BE347F8AA8F681390B50FA73F804400B5F542E796F19FF974E7F78DB802FE05E20750
310
4B0304140006080800CC70623BE75B7789680500003C100000340000006662782F41393633353835312D344632462D344230382D423046372D3739314545314133324237412F6F626A656374732E786D6CAD575B8F9B3818FD2B887D06C22499CB8AA1CA655245D5B455A356FB305264C061D8018C6C3393D95FBFC7600890
310
A4CD5EF210B0B1BFEBF98E3F7B1FF6596ABC522E1296DF9BAE3D320D9A872C4AF2F8DE2CE5CEBA358D0FBEC719939D65A691938CDE9B6ADAF4BD98B3B2D05311DD91329583D9D5FC0F438434A7A611A644887B5384CF34233629258BA878B12322891DEFF6B66BD70BFB62634E8AE781D082709A4B588AF91C528CDA28B73F
310
1C998EEF39EABBEFA97FBD6A7C7E9553F9D3D79FE442923C3C523610337627CB87ABE99D359D4CC6D6E4FACAB5E6ABF9D2726FC6A3C5F56271377BB88362213924694B38DD99FE47C48627A1E7D49F5A8BB5E1A74C0A599ED3B0F21F1E56366B89112D681E218F0915D0D6F17AD41FBA2A369DCF6335D62ABBD39779D5DDD1
310
11D4D8DE3CBB96B2E04FB8202E41051754A1AA8E8F76B4C6DFE810B580B1547F4B84911149794252234D024EF8BBE963A95AE27B3D310A9D5C215C7960FAEE415ED75694C6AFB17BCACA5D99A60A9AA65F217B0BFC53292ACB92BF283FAD0D3621576592CB5BED907C2FA8E9DF794E35E97BEA31BED21FEB401ABB94C44839
310
DCACBF0E1C5DA8DA5B2F4DFFD32AD86F543D9E565E7056502E157C00AD2671CD534549AB752FCA9CDA00677A313F04E51B22FF19E57B300579E3C97EB29F682D92935CEC18CF901B7B54FD8C51F362B56FC72FE0B3C1EAE335EDCCBF5AEC39ADB17DC238973F804BA5E6F6BFE7AF1FB32E523BE9F3BD571418E3631DCA4D48
310
5250CF639223210A9446CA30052EDF057BD35F8329C1ECD84552BF0DC8D18BE7BCE23BFE6BD960AB4A7DE79923A103BEBD80F911CBAA2C60DB19B01CF164A5583B772EE6D3FFA56666CBCDA74DC97724A48F9A58967497E489C4D979006FD7A05E227A1EBDD0F737C623387A9C844D3709995625106D157315F8B8392CD4E0
310
A0B9A720C4BE9829CEF37EA1E13111214D53925356365ADA634861B52519DD27A00AEB808EAF0628E6F435519D446F45CF2C9CF5214F0A15B2F6D06B79DA3EE3CBF7F56780D2F4E7EF73A0F5E5B02A38D07DC852C6B7C1FBB6664213E0C39E3EBA7FF4E1AD23EA2829407C85E586727488B751B2DB9502BC7B228A3FD68B6E
310
A65A22397E690AA8D158D7E404EC8CDA235CC3B7D1898680131CEC2CDF2638C65196279577750F15884AEE19F94199155B92B13297978469D4F8D358DF0AEF7631E28DC8F0D9F437D5D39A83B2231A1D52D543813A824EF8D44BCFF2FA6A31BD1E8DAD87F1CCB526B3879935BF59CDADD5C37479BB1CDD4CA7B3556B516589
310
EF352754B706114D9C885EC9131DE6EFEB43D99AFE2391C2F958179413D7CFEF6B1B6DB1E7600F00DE6E5C67454A339A4BA2E0FBA85ED26F045D454F463DBFCE484C2F90F2E5E3666003662ED8F755951A7D1BECD5B30B550B2785C8E7320B7292A4838DDA71BBC863ED7613CAF659337A3354231D4FF4A182A54904C2898C
310
98B28C4AD0CE056CCF332A80986E571EE9DBC305BB5FEB7E509220A58D25CF042D712A806AC0AD0C657FDEF80D2D9CEAA2EE4D1C76F60BFE74219A06527D6F82DF6412526107381E55E353090704D085B52408A8913C4ED159D79BDA71BB4BC506F4831350EB6F975CD22D69BF7AC49B91A2C0A9DDA3D5CA36AD20FC478E37
310
E61844E2352865EBCB61A275A65283CAAA9DD27703B4102F5AF51EF5F573B75CBB5AD38BC845F7A49F82A0966A49C2E3EA5EA0ECD326CD965F1DB402C6FA8B51A4658C5C5E2EC9E214602E55810345408596591009A82E7E7FFACA19EEA299B14A0081A705CB3296EBC14CDF658DCD336EA6D1136881AAEB87B81AB9EE53D5
310
F5EB8BC8362082DA24122F98680A4E7930C01A0079749CEA14382A0783E5EBA5A10F8C098456A03D6A4AEB6BB881E2513747552A5DB22C7EDAF83BD5528081A365F7FF06504B0304140006080000CC70623B000000000000000000000000350000006662782F41393633353835312D344632462D344230382D423046372D37
310
39314545314133324237412F76657274696365732E62696E504B0304140006080800CC70623BF270F1330600000004000000360000006662782F41393633353835312D344632462D344230382D423046372D3739314545314133324237412F747269616E676C65732E62696E636660600000504B0304140006080000CC7062
310
3B000000000000000000000000370000006662782F41393633353835312D344632462D344230382D423046372D3739314545314133324237412F617474726962757465732E62696E504B0304140006080800CC70623B08DA0BD19000000041010000360000006662782F41393633353835312D344632462D344230382D4230
310
46372D3739314545314133324237412F6469726563746F72792E786D6C858F410AC3201045AF22B36F53E9A60B35CBEEBAE80D244E44489C6234F4F835464A48035D0DF398FF9F8AF63D0E6CC63039F212F8F9020C7D47C6792B21C5FE7403D62A1188E2E60C98D7234A5830286103A55745067B9D86B8A3CF9C7F90C11DE6
310
07FB144396D7B6A82D282E9A152AD114D5EF2CB866EEE831B8EEA07A7BB5A8D7D61A2BAAEB7FD5F70921FF497D00504B0304140006080800CC70623BEDD1DC58FD000000A00100003B0000006662782F41393633353835312D344632462D344230382D423046372D3739314545314133324237412F7265736F75726365732F
310
636F72652E786D6C8D504B6E833010BD0A9A6D65B00922041947112427E8052C33A156828DFCA97AFC9A40A576D7CDCCE87D344F8F9FBFE667F689CE6B6B3A6039850C8DB2A336530731DC4903D95970676DF82583CCC8193B5861107C72362E3BA4AC096842428D1D7107A5F7182053CF7474E0D507CE32973124857FE48B
310
540F3961CEF244279DE03EB81420DB9EAC1384436FA353E879B1B182C7A8C75DA3C7F453DF353A1075D537A7BA6464B8F535A99AE14A9A2BBD90E350DD183B5CFABE3AF262350B1EF4FC9351399401471025A527C218A1E53BAB5A5AB765F5469B96525EACF23FA6B88CFF34456DC2A1DCE36E360F82A5202F42F062ED2BAD
310
579969AFDD8A6F504B010214000A0000080000CC70623B3DEE336E79000000790000001B00000000000000000000000000000000006175746F6465736B2D64657369676E2D7061636B6167652E786D6C504B01021400140006080800CC70623BD486FD9CA0000000F40000001300000000000000000000000000B20000005B
310
436F6E74656E745F54797065735D2E786D6C504B01021400140006080800CC70623B853B8169EB0000007C010000080000000000000000000000000083010000636F72652E786D6C504B01021400140006080800CC70623B55019EA25F0000007C000000070000000000000000000000000094020000636E782E786D6C504B
310
01021400140006080800CC70623BDBABAAF470010000D40300000C00000000000000000000000000180300006662782F636F72652E786D6C504B01021400140006080800CC70623B9C113CC27E0000009D0000000B00000000000000000000000000B20400006662782F636E782E786D6C504B01021400140006080800CC70
310
623B7DF2F77C2A010000120200003100000000000000000000000000590500006662782F41393633353835312D344632462D344230382D423046372D3739314545314133324237412F636F72652E786D6C504B01021400140006080800CC70623BAD7543B64E010000330300003000000000000000000000000000D2060000
310
6662782F41393633353835312D344632462D344230382D423046372D3739314545314133324237412F636E782E786D6C504B01021400140006080800CC70623BE75B7789680500003C10000034000000000000000000000000006E0800006662782F41393633353835312D344632462D344230382D423046372D3739314545
310
314133324237412F6F626A656374732E786D6C504B01021400140006080000CC70623B0000000000000000000000003500000000000000000000000000280E00006662782F41393633353835312D344632462D344230382D423046372D3739314545314133324237412F76657274696365732E62696E504B01021400140006
310
080800CC70623BF270F133060000000400000036000000000000000000000000007B0E00006662782F41393633353835312D344632462D344230382D423046372D3739314545314133324237412F747269616E676C65732E62696E504B01021400140006080000CC70623B0000000000000000000000003700000000000000
310
000000000000D50E00006662782F41393633353835312D344632462D344230382D423046372D3739314545314133324237412F617474726962757465732E62696E504B01021400140006080800CC70623B08DA0BD1900000004101000036000000000000000000000000002A0F00006662782F41393633353835312D344632
310
462D344230382D423046372D3739314545314133324237412F6469726563746F72792E786D6C504B01021400140006080800CC70623BEDD1DC58FD000000A00100003B000000000000000000000000000E1000006662782F41393633353835312D344632462D344230382D423046372D3739314545314133324237412F7265
310
736F75726365732F636F72652E786D6C504B0506000000000E000E0080040000641100000000
  0
XRECORD
  5
F2D
102
{ACAD_REACTORS
330
1F7
102
}
330
1F7
100
AcDbXrecord
102
MATERIAL
148
0.0
149
0.0
149
0.0
 93
        0
 94
       63
282
     0
 72
     1
 77
     1
171
     1
175
     1
179
     1
273
     0
  0
XRECORD
  5
1F8
102
{ACAD_REACTORS
330
1F7
102
}
330
1F7
100
AcDbXrecord
 70
     1
 90
429727718
  1
30362254-06B7-45E0-A893-8CFA70E3D6BC
310
504B03040A0000080000CC70623B3DEE336E79000000790000001B0000006175746F6465736B2D64657369676E2D7061636B6167652E786D6C3C3F786D6C2076657273696F6E3D22312E302220656E636F64696E673D227574662D3822203F3E3C666F726D6174733E3C666F726D61743E687474703A2F2F736368656D612E
310
6175746F6465736B2E636F6D2F64657369676E2D7061636B6167652F323030393C2F666F726D61743E3C2F666F726D6174733E504B0304140006080800CC70623BD486FD9CA0000000F4000000130000005B436F6E74656E745F54797065735D2E786D6C7D8EC10E82300C865F65E91D8A1E8C310C0EEA1BF002731658846E
310
D98AC1B77784ABF1D8FE5FBFBF75BBCE937A534CCEB38643598122B6FEE978D0B0485F9C41B54DDD7D022595594E1A469170414C76A4D9A4D207E29CF43ECE46F218070CC6BECC4078ACAA135ACF422C856C0E68EA1BF5669944DDD7BCDE7B1F8E415D77AECB980613C2E4AC91FC167A2B244592486606FC29C8FD7F045B9A
310
EF7053A7E60B504B0304140006080800CC70623B1EC5D7A3EB0000007C01000008000000636F72652E786D6C8D90416EC3201045AF82665B6103C6756C6122AB4D4ED00B204C5C94182C03558F5F9C3852BBEB6A467FFE9B197D71FC9E6FE8CBACC17AD7032D0820E3B41FAD9B7A48F1820F808E52ACDEC75F36404ECDA687
310
4D0629A6D5A76597B477D1B89855E747B38B2A041301E95B6E7A08FAD3CCAA50296647B8168BD2573599823EBB0CA76447F43862C7BCCF5EAC59410E4DDD9C7973C2755553CCCFA4C603E3040F1565ED3B1FDE4E432BCA0D9622DAF9795FAF464533826484B498524CD807E51D79ED187F21878E10516EF63F505AC67F42C9
310
BA58B1FDDD071640D2FCC87D2045B96591CB3DA85CB7DCE40F504B0304140006080800CC70623B55019EA25F0000007C00000007000000636E782E786D6C4DCB3B0E80201045D1AD90E915ED2CF8AC45050C11660C8261F98AB1B07AC9C97D42D718D865D3E909258CFD00CCE24AC6E326A164D74DC0B4128928FF32603847
310
2BA13128B1252AC747C6BAB984FC68F0B87FE8960A5C09FE86CFB69FBA01504B0304140006080800CC70623B8C9102E971010000D40300000C0000006662782F636F72652E786D6CC5535B6E833010BC8AE5DF0A6C08340F1947A84D4ED00B38C6A128602363A31CBFCB234A53A551FA553EC09AD9F5CE8C31DB9E9B1AF5CA
310
7695D1198E428A91D2D214952E33ECDD315861B4E5CC1AE3BE9561A445A3323CC098B3D21ADFCE9034DA29ED00D5A6503328BA4E398C640D8B0C77F253352214DE4145770A5B214FA2546114020D759C75CE8200340D19DE981F0F6746269C33EFAB6266AB02A655C74A59CCF365BADC27CB5D902ED22848F6340DF238A141
310
BE88E2F57B92BFEDF23523433367AE6A2EEAA455C2A902F398D2751045018D3FA264435F3771F242571B4A1919CA6F9A7C5B3CD9E42BED16F12C776AEB308F40C848FC700B1139D4891EF410CEC810227CC6846F8386402064270EF5C5C709A05E49676C024C61FC95EA45ED154CA5211D1FF4FB8291A913A68E9B83EBBB33
310
E2A7673CDE118E5AE8124C0807CB8377834E366998436B950D7A7746DAD846D4CFD978E0F04FD455FC5D49D2D4C6FE9722321F10997F0F32DC47FE05504B0304140006080800CC70623BFFEA85907E0000009D0000000B0000006662782F636E782E786D6C4DCCD10A83201886E15B91FFDC95D95A811AB6F23E625948A6C3
310
E9D8E5AF46073BFAE0E1E365ED67B3E8ADC3CB78C7815C7240DA3DFC64DCC221C519D7805AC182F7F1EF06C88D9BE6703008B6049F9E274D7A1E938DBB5AE3D6131B2589BA0D3D965551E0B2EA732C9B9A624AAEB41E3A557677029960D9AFB4EF11165F504B0304140006080800CC70623B4FEEA4082C0100001202000031
310
0000006662782F39464131463745442D413632322D343644302D413938332D3331353338454246344243312F636F72652E786D6C8D515B6EC32010BC0AE2AB55850DD871ED0813254D72825EC00192A2C460F1A872FC42ED48ED5F7E00CDCECCCEB26C731F6FE05B39AFADE921293004CA082BB5B9F43086336A21D870E6AC
310
0D7F68109861543DCC30E4ECE26C9C164858139409093556AA051CBC570102714B8F1E7AF1A5C6A11862480C7F2DA6415C878B2A4891CA89C7990F2E050073937C42DE1DB7E4F87ED8A36D4329AA9B3D46DBAEAD504556557BD81DEBDD0761E52CE42C462D17B996298E3E6BE59E35C962CE821E1FF18553435012728A7187
310
0841987E927A8D9B35ADDF70BBC6989599FE4F1427F9A4286A132ABAC49D651EF234CD5CE04CDA78BA3DC2A8FB645D00B9DF8B57E215725C60BCA2A463E54C4CE327C7A65E1C7DB02E7DEFCBF594B864C5CA6CDBD49C957943E9FA5D5FBAF336F90F504B0304140006080800CC70623BAD7543B64E01000033030000300000
310
006662782F39464131463745442D413632322D343644302D413938332D3331353338454246344243312F636E782E786D6CD593CD6EC32010845F0571AD6CE3D48AD20813A9873E410FBD12D82434182C7EAAE6EDBB2424CD25871E7B41D6EC30B3FA84F9E67BB2E40B4234DE8DB46F1925E094D7C6ED479AD3AE5951B2113C
310
789FEE6C943839C1488B4C05DF079FE72A69D8C96C13AAD6B8631503449F83828872B949AC57D26200B826A308D316B4064D6E46FCDA41C05550DC9E483A00797BFD207EFB092A45DE9514C1BBD22178396BD39D891265658C238DEA00936C654E5E433CB65A26D9F6EDB5EBC14EBF49A45CB856E66048291F6939A9A81BB5
310
C8917738143CA680F4AA299D66A042CEB3354A2684DC9D8D178FE0D9B8B41CAAD720F880EE7EF93C0C18769E099ECC04D5A102C8049A8A05632F4DDF376CF1DE0F6BB65C2F8627B65A33C6BB62177CEBBDAD973006829F89F22E814B54F4BC2BE347F8AA8F681390B50FA73F804400B5F542E796F19FF974E7F78DB802FE05
310
E207504B0304140006080800CC70623B16AB87BA640500003C100000340000006662782F39464131463745442D413632322D343644302D413938332D3331353338454246344243312F6F626A656374732E786D6CAD575B6FA33818FD2B887DE6924B3BED8A326A92B68A663B534DD4D13E548A0C38942D60649B369D5FBFC7
310
600890A493BDE42160637FD7F31D7FF63E6FB3D478A55C242CBF3247B66B1A340F5994E4F19559CA8D75611A9F7D8F33263BCB4C232719BD32D5B4E97B316765A1A722BA21652A07B3B7B33F0D11D29C9A46981221AE4C113ED38CD8A4942CA2E2C58E882476BCD9DA23BB5ED8171B73523C0F841684D35CC252CCE79062D4
310
468DFA43D7747CCF51DF7D4FFDEB5593E3AB9CCA9FBEFE241792E4E19EB28198C968BAB8199F5D5A67D3E9C49A9E8F47D6EC76B6B0469F26EEFC7C3EBFBCBEB98462213924694B38DD98FE1D62C393D073EA4FADC5DAF04326852CCF6958F90F0F2B9BB5C48816348F90C7840A68EB78EDF68723159BCEE7891A6B95DDE9D3
310
BCEAEEE8086A6C6F9E5D4B59F0175C10A7A0820BAA5055C7473B5AE3CFDD452D602CD5DF12616444529E90D448938013FE6EFA58AA96F85E4F8C42275708571E98FE6827AF6B2B4AE3D7D83D64E5A64C53054DD3AF90BD06FEA9149565C94FCA0F6B834DC85599E4F2423B24DF0B6AFA979E534DFA9E7A4CC6FA631D486393
310
921829879BF5D781A373557BCB85E97FB90DB62B558F8795179C15944B051F40AB495CF35451D26A4727654E6D8033BD98EF82F21D91FF8AF2DD9982BCF1643BDD4EB516C9492E368C67C88DED563FC36D5EACF66DFF057C3658BDBFA69DF9578B3DA735B64F18C7F20770A9D45CFCF7FCF563D6456A277DBEF78A02637CA2
310
43B90A490AEAB94F72244481D24819A6C0E59B606BFA4B3025981DBB48EAB701D97BF19C577CC77F2D1B6C55A9EF3C732474C0B727303F625995056C3B02963D9EAC146BE78EC5FCEC7FA999EBC5EACBAAE41B12D27B4D2C0BBA49F244E2ECDC81B76B502F113D8F5EE8FB1BE3111CDD4FC2AA9B844CAB1288B68AB90A7CDC
310
1C166AB0D3DC5310625FCC14E779BFD0709F8890A629C9292B1B2DED31A4B0DA928CEE135085754027E3018A397D4D5427D15BD1330B677DC8934285AC3DF45A9EB68FF8F2B8FC0A509AFEECFD0FF2DE25CC6047F7214B195F07EFEB9A094D800F7BFAE8FED187B78EA8A3A400F115961BCAD1215E47C966530AF0EE8128FE
310
58CEBB996A8964FFA529A046635D9353B0336A8F700DDF46271A024E70B0B37C9DE01847591E54DED53D54202AB947E4076556AC49C6CA5C9E1226B7F1A7B1BE15DEED62C41B91E1B3E9AFAAA735036547343A925075041DF0A9979E893B391F8FCFA6967B3EFB644DCF6E5CEBFAE272625DCC6FAF3FB93793C5F90CE1EF57
310
407342756B10D1C489E8953CD1617E5CEECAD6F4EF8914CE5D5D504E5C3F1F9736DA62CFC11E00BCDDB8CC8A9466349744C1F75EBDA4DF09BA8A9E8C7A7E9991989E20E5DBDD6A6003664ED8F7A04A8DBE0DF6EAD9B9AA858342E47399053949D2C146EDB85DE4B176BB0965FBAC19BD19AA918E27FA50C1D22402E144464C
310
59462568E704B6E71915404CB72B8FF4EDE184DDAF753F284990D2C6926782963815403548A70C657FDEF80D2D9CEAA2AE4C1C76F60BFE74219A06527D6582DF6412526107381E55E353090704D085B52408D0933C4ED159D79BDA71BB4BC506F4831350EB6F979CD22D69BF7AC49B91A2C0A9DDA3D5CA36AD20FC478E37E6
310
1844E2352865EBCB6EA275A652E3836BE04EFB400BF1A2556F515F1FBB35B2AB35BD889C744FFA1004B5544B121E57F70215746DD2F5E2C1412B602CBF19455AC6C8E5E9922C4E01E65215385004546899059180EAFCF7A707CE7017CD8CDB0410789AB32C63B91E5CEBBBACB17AC6CD347A022D5075FD106377347AAABA7E
310
7D11590744509B44E205134DC1290F06580320F78E537D3D73540E06CB970B431F185308AD40BBD794D6D77003C5A36E8EAA54BA64597CD8F83BD552A080A365F7FF06504B0304140006080000CC70623B000000000000000000000000350000006662782F39464131463745442D413632322D343644302D413938332D3331
310
353338454246344243312F76657274696365732E62696E504B0304140006080800CC70623BF270F1330600000004000000360000006662782F39464131463745442D413632322D343644302D413938332D3331353338454246344243312F747269616E676C65732E62696E636660600000504B0304140006080000CC70623B
310
000000000000000000000000370000006662782F39464131463745442D413632322D343644302D413938332D3331353338454246344243312F617474726962757465732E62696E504B0304140006080800CC70623B08DA0BD19000000041010000360000006662782F39464131463745442D413632322D343644302D413938
310
332D3331353338454246344243312F6469726563746F72792E786D6C858F410AC3201045AF22B36F53E9A60B35CBEEBAE80D244E44489C6234F4F835464A48035D0DF398FF9F8AF63D0E6CC63039F212F8F9020C7D47C6792B21C5FE7403D62A1188E2E60C98D7234A5830286103A55745067B9D86B8A3CF9C7F90C11DE607
310
FB144396D7B6A82D282E9A152AD114D5EF2CB866EEE831B8EEA07A7BB5A8D7D61A2BAAEB7FD5F70921FF497D00504B0304140006080800CC70623B0D6EF93BFE000000A00100003B0000006662782F39464131463745442D413632322D343644302D413938332D3331353338454246344243312F7265736F75726365732F63
310
6F72652E786D6C8D50596E833010BD0A9ADFCA60B334011947A8694ED00B586642AC041B79A97AFC9A40A5F6AF3F33A3B7689E1E3F7DCD8FEC139DD7D6F4C0720A191A65476DA61E62B892236427C19DB5E1970C322367EC618541F0C9D9B8EC90B226A009093576C41D94DE63804C3DD2D18357379C652E63480A7FCF17A9
310
EE72C29CE5894E3AC17D702940B63D59270887DE46A7D0F36263058F518FBB468FE9A7BE6A7420864373B8D4873369AA8691FA421B3294352543C5CAF65C0F6FEF43CB8BD52C78D0F34F46E550061C419494B6843142CB0F5677F4B52BEB177AEC28E5C52AFF638ACBF84F53D42654E51E77B379102C05791282176B5F693D
310
CB4C7BED567C03504B010214000A0000080000CC70623B3DEE336E79000000790000001B00000000000000000000000000000000006175746F6465736B2D64657369676E2D7061636B6167652E786D6C504B01021400140006080800CC70623BD486FD9CA0000000F40000001300000000000000000000000000B20000005B
310
436F6E74656E745F54797065735D2E786D6C504B01021400140006080800CC70623B1EC5D7A3EB0000007C010000080000000000000000000000000083010000636F72652E786D6C504B01021400140006080800CC70623B55019EA25F0000007C000000070000000000000000000000000094020000636E782E786D6C504B
310
01021400140006080800CC70623B8C9102E971010000D40300000C00000000000000000000000000180300006662782F636F72652E786D6C504B01021400140006080800CC70623BFFEA85907E0000009D0000000B00000000000000000000000000B30400006662782F636E782E786D6C504B01021400140006080800CC70
310
623B4FEEA4082C0100001202000031000000000000000000000000005A0500006662782F39464131463745442D413632322D343644302D413938332D3331353338454246344243312F636F72652E786D6C504B01021400140006080800CC70623BAD7543B64E010000330300003000000000000000000000000000D5060000
310
6662782F39464131463745442D413632322D343644302D413938332D3331353338454246344243312F636E782E786D6C504B01021400140006080800CC70623B16AB87BA640500003C1000003400000000000000000000000000710800006662782F39464131463745442D413632322D343644302D413938332D3331353338
310
454246344243312F6F626A656374732E786D6C504B01021400140006080000CC70623B0000000000000000000000003500000000000000000000000000270E00006662782F39464131463745442D413632322D343644302D413938332D3331353338454246344243312F76657274696365732E62696E504B01021400140006
310
080800CC70623BF270F133060000000400000036000000000000000000000000007A0E00006662782F39464131463745442D413632322D343644302D413938332D3331353338454246344243312F747269616E676C65732E62696E504B01021400140006080000CC70623B0000000000000000000000003700000000000000
310
000000000000D40E00006662782F39464131463745442D413632322D343644302D413938332D3331353338454246344243312F617474726962757465732E62696E504B01021400140006080800CC70623B08DA0BD190000000410100003600000000000000000000000000290F00006662782F39464131463745442D413632
310
322D343644302D413938332D3331353338454246344243312F6469726563746F72792E786D6C504B01021400140006080800CC70623B0D6EF93BFE000000A00100003B000000000000000000000000000D1000006662782F39464131463745442D413632322D343644302D413938332D3331353338454246344243312F7265
310
736F75726365732F636F72652E786D6C504B0506000000000E000E0080040000641100000000
  0
XRECORD
  5
F2E
102
{ACAD_REACTORS
330
173
102
}
330
173
100
AcDbXrecord
102
MATERIAL
148
0.0
149
0.0
149
0.0
 93
        0
 94
       63
282
     0
 72
     1
 77
     1
171
     1
175
     1
179
     1
273
     0
  0
XRECORD
  5
1FB
102
{ACAD_REACTORS
330
173
102
}
330
173
100
AcDbXrecord
 70
     0
 90
1673772943
  1
ECE7A1D2-D628-4531-984C-D00F80459256
310
504B03040A0000080000CC70623B3DEE336E79000000790000001B0000006175746F6465736B2D64657369676E2D7061636B6167652E786D6C3C3F786D6C2076657273696F6E3D22312E302220656E636F64696E673D227574662D3822203F3E3C666F726D6174733E3C666F726D61743E687474703A2F2F736368656D612E
310
6175746F6465736B2E636F6D2F64657369676E2D7061636B6167652F323030393C2F666F726D61743E3C2F666F726D6174733E504B0304140006080800CC70623BD486FD9CA0000000F4000000130000005B436F6E74656E745F54797065735D2E786D6C7D8EC10E82300C865F65E91D8A1E8C310C0EEA1BF002731658846E
310
D98AC1B77784ABF1D8FE5FBFBF75BBCE937A534CCEB38643598122B6FEE978D0B0485F9C41B54DDD7D022595594E1A469170414C76A4D9A4D207E29CF43ECE46F218070CC6BECC4078ACAA135ACF422C856C0E68EA1BF5669944DDD7BCDE7B1F8E415D77AECB980613C2E4AC91FC167A2B244592486606FC29C8FD7F045B9A
310
EF7053A7E60B504B0304140006080800CC70623BD9DDAED0EC0000007C01000008000000636F72652E786D6C8D90416EC3201045AF82665B61836D9CD8C2444DD39CA01740405C94182C03558F5F9C3852BBEB6A467FFE9B197D7EF89E6EE8CB2CC17A37002D0820E394D7D68D03A478C17B4007C117EFE32F1B20272733C0
310
2A83E0E3E2D3BC49CABB685CCCAAF3DA6CA20CC14440EA969B0182FA34932C648AD911AEC52CD5558EA6A0CF2EC329598D1E47ACCEFBECC59A050463A7EA5833865FEBDD0E37353BE3EE8DBDE3F6786A48D375FBF6CC78B9C282473B3DEFABC5C86834888A900E538A49F5419B9EB47DD5BC907D4F082F57FB1F28CDFA9F50
310
B22ED6D5F6EE030B20687EE43E10BC5CB3C8E51E54AE6B6EE207504B0304140006080800CC70623B55019EA25F0000007C00000007000000636E782E786D6C4DCB3B0E80201045D1AD90E915ED2CF8AC45050C11660C8261F98AB1B07AC9C97D42D718D865D3E909258CFD00CCE24AC6E326A164D74DC0B4128928FF326038
310
472BA13128B1252AC747C6BAB984FC68F0B87FE8960A5C09FE86CFB69FBA01504B0304140006080800CC70623BA24EB22D72010000D40300000C0000006662782F636F72652E786D6CC5535B6E833010BC8AE5DF0A6C5E49888CA3A6694ED00B38E05014B091B1518EDFE511A5A9D228FD2A1F60CDEC7A67C6986DCE4D8D7A
310
69BA4AAB0C073EC548AA5C17952A33ECECD15B61B4E1CC686DBF9561A44423333CC098B3D268D7CE50AE9595CA02AA74216750749DB418E5352C32DCE59FB211BE70162ABA93DF8AFC244AE9073ED050C759670D0840D390E18DF9F1706664C23973AE2A66B62A605A75ACA4C13C4976E1364A12EF355A2EBD384AF65EFA96
310
BC7B8BED2EA6719AAE16FB8491A199335B351775B991C2CA02F390D2D40B028F861F41BCA68B7518BFD0D59A524686F29B26D7164F36B94AD9289CE54E6D1DE6010819891F6E21228B3AD1831EC219194284CF98F06DD01008846CC5A1BEF83801D4CBDC6A1303536877A57A513B0953A94FC707FDBE6064EA84A9E3E6E0FA
310
EE8CF0E9198F7784A316AA0413C2C2F2E0ECA0934D1AE6D05A69BCDE9E91D2A611F573361E38FC1375157F5752AE6B6DFE4B11990F88CCBF0719EE23FF02504B0304140006080800CC70623B408A7D3B7C0000009D0000000B0000006662782F636E782E786D6C4DCCD10A83201886E15B91FFDC552A92A0064DBC8F581632
310
D3703A76F9ABD1C18E3E78F878E5F0D9027ABBFCF2292AE86E2D20171F69F6715550CB827B40839639A5F2770314A7CD293819B45C73AAFB45B35BA61ACAA1C1C7E7855C58C15BC331339661262CC762340413D68D77DA5B42298546CBE6573AF60CEB2F504B0304140006080800CC70623B449FB9BD290100001202000031
310
0000006662782F36394639363044362D344446342D343946362D394244322D3234314243333846323333332F636F72652E786D6C8D515B6EC32010BC0AE22B55850D98B871848994463E412FE002495162B07854397EA176A4F62F3F2C9A9D991D587EB84F37F0AD7D30CEF6905418026DA553C65E7A98E219ED203808EE9D
310
8B7F6810D871D23D2C3014FCE25D9A57483A1BB58D19B54EE9151C43D0110279CB971E06F9A5A7B11A53CC8C70ADE6515EC78BAE4895DB992778883E0700CB907242D17643D7E2538BD869608875438BBAE38922CAC8F1BDD90DB4691A5E2F42C153326A951B95E398B3D1FE599322163C9AE9115F7A3D46ADA0A018778810
310
84E907617BDCEE297BC5BB3DC6BC2EF47FA234AB2745C9D8D8D035EE220B50105E2F0DC1954B9FB747187D9F9D8FA0CCDB042D5FA0C015C65B42DF78BD10F3F3B363CB56C7109DCFDFBBB97E662ED92EB62D13BC2E1BCAE5777DB9966D8A1F504B0304140006080800CC70623BAD7543B64E01000033030000300000006662
310
782F36394639363044362D344446342D343946362D394244322D3234314243333846323333332F636E782E786D6CD593CD6EC32010845F0571AD6CE3D48AD20813A9873E410FBD12D82434182C7EAAE6EDBB2424CD25871E7B41D6EC30B3FA84F9E67BB2E40B4234DE8DB46F1925E094D7C6ED479AD3AE5951B2113C789FEE
310
6C943839C1488B4C05DF079FE72A69D8C96C13AAD6B8631503449F83828872B949AC57D26200B826A308D316B4064D6E46FCDA41C05550DC9E483A00797BFD207EFB092A45DE9514C1BBD22178396BD39D891265658C238DEA00936C654E5E433CB65A26D9F6EDB5EBC14EBF49A45CB856E66048291F6939A9A81BB5C89177
310
38143CA680F4AA299D66A042CEB3354A2684DC9D8D178FE0D9B8B41CAAD720F880EE7EF93C0C18769E099ECC04D5A102C8049A8A05632F4DDF376CF1DE0F6BB65C2F8627B65A33C6BB62177CEBBDAD973006829F89F22E814B54F4BC2BE347F8AA8F681390B50FA73F804400B5F542E796F19FF974E7F78DB802FE05E20750
310
4B0304140006080800CC70623B8D05915C650500003B100000340000006662782F36394639363044362D344446342D343946362D394244322D3234314243333846323333332F6F626A656374732E786D6CAD575B6FA33814FE2B887D06429276DA1565D4266D158D3A339A6846FB502932E050B66023DB74D2FDF5FB190C01
310
9276B2973C046C8ECFF53B17071F77456EBD502133CEAE6CDF9DD81665314F32965ED995DA3A17B6F5310C04E7AA47665B8C14F4CAD6DB7618A48257A5D94AE89654B91AEDDEDDFC61C998326A5B714EA4BCB265FC440BE2924AF184CA6737218AB8E976E7FA6E4338649B0A523E8D98964450A6A029F619B8588D52FE7039
310
B1BD30F0F4F730D0FF866AF6369557DB33949F31A9088B0F848DD8CCFCF9F2767A76E99CCDE733677E3EF59D9BBB9BA5E37F984D16E78BC5E5F5ED25044B25C0C96822E8D60EEFE11B91C581D77CEA34368A1F5329E68CD1B8B61F16D63A1B8E092D294B10C78C4A48EB593D192E7DED9BDEE7995E1B91FDEDD3ACEA9FE831
310
6A756F9F7D4D79F4274C90A7A04248AA51D5F8C718DAE06FB2F75AC4796EBE65D22A88A22223B995679120E2D50E41AA49C260C046A35368846B0BECD0DFF3EBEB8AD4F835768F69B9ADF25C43D30E6B646F807FAA64AD59F61715C7A54127C4AACA98BA3006A9D792DAE165E0D59B61A01FB3A9F9D838D2DAE62445C86166
310
F37564E842E7DE6A69879FEEA2DD5AE7E371E1A5E025154AC307D06A03D73EB5978C58FFA4C8E9033066E0F3BD53BEC1F39F91BE7B55103791EDE6BBB991A2046172CB4581D8B893FA674DDA17A77B3B7C413D1B511FD2743BFF8A38F03A658705E3ADF8015C3A3417FF3D7E439FF591DA0B5F18BC20C1B8981957AE6392A3
310
F43C640C01D1A0B4728E2DD4F26DB4B3C3152A252A3B4E913CEC1C72F012782FF88EFF8637AA552DBEF76408E8A8DE9E50F9E1CB3A2DA0DB1B6039A893B56063DC5B3E3FFB5F72E67AB9FEB4AEC496C4F4C1149625DD662C53E89D7BF0F6151A046260D1337DFDC94502430F83B0EE07A130A224BCAD7DAE1D9FB6CD422FF6
310
920702629C4BB9AE79C12F243C6432A6794E18E5552BA56B431AAB5D91317302B2B071E86C3A42B1A02F999E24061403B5D0EB639195DA655DD3EBEAB4FB862DDF579F014AD0E73C22F99E28DA57FB98E75C6CA2D74D53086D600F4786E0FE3144B771A8A7B900F03594DB8A633CBC49B2EDB69228BB479CF863B5E807AAAB
310
23872F6DFEB4129B949CA33823F58830E86D65621E10047D9DB34D862E8EAC3C2ABC2F7B2C40D67CDFE01F5545B92105AF983AC54D93D69E56FB8E797F88913F898A9FEC705D3F9D1B54EC8426FB500D40A03BD0119B06E1B95DDC7EB8F6975367793EBD70E66733DFB9BC982F9CE564727731999F5D4ECFCE3B8D6A4DC2A0
310
6D50FD148437D110834A64C6CDDF57FBACB5C307A2A477DFE4939736CFEF2B175371E0E10CF0DD1D5C15654E0BCA14D1E87DD02FF93782A162C0A3D95F1524A52770F972BF1EE9809D13CE7DD599467F8ECE9ADD85CE85A34CD45355448C64F9E8A031DC2D596ACC6E5DD93D9B82DE2EF5CAF81363A8E47996A0DE24564A79
310
4115AACE09C55E14540231FDA13C319787134EBF34E3A022514E5B4D9E0826E25C02D5805B15ABE1BEF51B26383D445DD9E875EE33FE4C22DA16427D65A3BCA92CA6D28DD01DF5DC53330704308475351050232CCD31583787BA75774AFB06E5070DD0C8EF484E19968C5D83BA5B90B244D31E54D55A372320FE4786B7EA58
310
44E135AA5467CB7EA333A61683CC6A8C3257034C10CF46F40EF9F5BE59BE5BD30C3C72D235E95D10345C1D45445A5F0BB47E46A5EBE5570F9380B5FA629579952296A773720405982B9DE04011506178964401AA8BDF1FBF0A8EAB6861DD6580C0E38217056766716DAEB2D6FA0917D3E4116581EADB879C4E7CFFB11EFACD
310
3D641311495D92C8676CB409A72D18610D803CE8A626049E8EC1887CB5B44CC39883690DDA8399B4B9855B481E7D71D4A9D22F96E5BB73BF5793020C02137BF837504B0304140006080000CC70623B000000000000000000000000350000006662782F36394639363044362D344446342D343946362D394244322D32343142
310
43333846323333332F76657274696365732E62696E504B0304140006080800CC70623BF270F1330600000004000000360000006662782F36394639363044362D344446342D343946362D394244322D3234314243333846323333332F747269616E676C65732E62696E636660600000504B0304140006080000CC70623B0000
310
00000000000000000000370000006662782F36394639363044362D344446342D343946362D394244322D3234314243333846323333332F617474726962757465732E62696E504B0304140006080800CC70623B08DA0BD19000000041010000360000006662782F36394639363044362D344446342D343946362D394244322D
310
3234314243333846323333332F6469726563746F72792E786D6C858F410AC3201045AF22B36F53E9A60B35CBEEBAE80D244E44489C6234F4F835464A48035D0DF398FF9F8AF63D0E6CC63039F212F8F9020C7D47C6792B21C5FE7403D62A1188E2E60C98D7234A5830286103A55745067B9D86B8A3CF9C7F90C11DE607FB14
310
4396D7B6A82D282E9A152AD114D5EF2CB866EEE831B8EEA07A7BB5A8D7D61A2BAAEB7FD5F70921FF497D00504B0304140006080800CC70623BCA768048FE000000A00100003B0000006662782F36394639363044362D344446342D343946362D394244322D3234314243333846323333332F7265736F75726365732F636F72
310
652E786D6C8D50596E833010BD0A9ADFCA60D600328E9AA639412F609909B1126CE4A5EAF16B0295DABFFECC8CDEA2797AECF8353F924FB44E193D409E5248504B332A3D0D10FC95B4901C39B3C6F85F3248B49871801506CE266BC2B243D2688FDA47549B11775038871E12F988C7004EDE7016A9083E2ADC3D5D84BC8B09
310
D33C8D74D471E6BC8D0192EDC93A815B742658898E651BCB59086ADC356A8C3FD555A1055ED7E7E254D615792D0F075295F585746FF53B694EE78A565DD736979A65AB9933AFE69F8CD2A2F038022F28ED489E135A7CE4554F9BBEA85E68DB53CAB255FEC71496F19FA6A0B42F8B3DEE6673C0F318E4497096AD7DC5F52C33
310
EEB55BFE0D504B010214000A0000080000CC70623B3DEE336E79000000790000001B00000000000000000000000000000000006175746F6465736B2D64657369676E2D7061636B6167652E786D6C504B01021400140006080800CC70623BD486FD9CA0000000F40000001300000000000000000000000000B20000005B436F
310
6E74656E745F54797065735D2E786D6C504B01021400140006080800CC70623BD9DDAED0EC0000007C010000080000000000000000000000000083010000636F72652E786D6C504B01021400140006080800CC70623B55019EA25F0000007C000000070000000000000000000000000095020000636E782E786D6C504B0102
310
1400140006080800CC70623BA24EB22D72010000D40300000C00000000000000000000000000190300006662782F636F72652E786D6C504B01021400140006080800CC70623B408A7D3B7C0000009D0000000B00000000000000000000000000B50400006662782F636E782E786D6C504B01021400140006080800CC70623B
310
449FB9BD290100001202000031000000000000000000000000005A0500006662782F36394639363044362D344446342D343946362D394244322D3234314243333846323333332F636F72652E786D6C504B01021400140006080800CC70623BAD7543B64E010000330300003000000000000000000000000000D20600006662
310
782F36394639363044362D344446342D343946362D394244322D3234314243333846323333332F636E782E786D6C504B01021400140006080800CC70623B8D05915C650500003B10000034000000000000000000000000006E0800006662782F36394639363044362D344446342D343946362D394244322D32343142433338
310
46323333332F6F626A656374732E786D6C504B01021400140006080000CC70623B0000000000000000000000003500000000000000000000000000250E00006662782F36394639363044362D344446342D343946362D394244322D3234314243333846323333332F76657274696365732E62696E504B010214001400060808
310
00CC70623BF270F13306000000040000003600000000000000000000000000780E00006662782F36394639363044362D344446342D343946362D394244322D3234314243333846323333332F747269616E676C65732E62696E504B01021400140006080000CC70623B00000000000000000000000037000000000000000000
310
00000000D20E00006662782F36394639363044362D344446342D343946362D394244322D3234314243333846323333332F617474726962757465732E62696E504B01021400140006080800CC70623B08DA0BD190000000410100003600000000000000000000000000270F00006662782F36394639363044362D344446342D
310
343946362D394244322D3234314243333846323333332F6469726563746F72792E786D6C504B01021400140006080800CC70623BCA768048FE000000A00100003B000000000000000000000000000B1000006662782F36394639363044362D344446342D343946362D394244322D3234314243333846323333332F7265736F
310
75726365732F636F72652E786D6C504B0506000000000E000E0080040000621100000000
  0
ACAD_PROXY_OBJECT
  5
DD7
330
DC2
100
AcDbProxyObject
 90
      499
 91
      529
 93
       77
310
40AF3C363FFFC9AD2020
330
DA8
330
0
330
0
360
0
 94
        0
1001
ACAD
1000
AcadProxyRoundTripData
1071
      520
1071
 11403297
1070
     0
  0
ACAD_PROXY_OBJECT
  5
DCB
330
DC2
100
AcDbProxyObject
 90
      499
 91
      529
 93
       30
310
40A789B8
330
DBD
330
0
330
0
360
DCC
 94
        0
1001
ACAD
1000
AcadProxyRoundTripData
1071
      521
1071
 11403297
1070
     0
  0
ACAD_PROXY_OBJECT
  5
DCF
330
DC2
100
AcDbProxyObject
 90
      499
 91
      529
 93
       30
310
40A788C0
330
DBA
330
0
330
0
360
DD0
 94
        0
1001
ACAD
1000
AcadProxyRoundTripData
1071
      521
1071
 11403297
1070
     0
  0
ACAD_PROXY_OBJECT
  5
DD1
330
DC2
100
AcDbProxyObject
 90
      499
 91
      529
 93
       70
310
40AB89CCAD2C901006
330
DEC
330
0
330
0
360
0
 94
        0
1001
ACAD
1000
AcadProxyRoundTripData
1071
      519
1071
 11403297
1070
     0
  0
ACAD_PROXY_OBJECT
  5
DC9
330
DC2
100
AcDbProxyObject
 90
      499
 91
      529
 93
       77
310
40AF3C363FFFC89D2020
330
DA2
330
0
330
0
360
0
 94
        0
1001
ACAD
1000
AcadProxyRoundTripData
1071
      520
1071
 11403297
1070
     0
  0
ACAD_PROXY_OBJECT
  5
DCD
330
DC2
100
AcDbProxyObject
 90
      499
 91
      529
 93
       30
310
40A78950
330
DBC
330
0
330
0
360
DCE
 94
        0
1001
ACAD
1000
AcadProxyRoundTripData
1071
      521
1071
 11403297
1070
     0
  0
ACAD_PROXY_OBJECT
  5
DC3
330
DC2
100
AcDbProxyObject
 90
      499
 91
      529
 93
       77
310
40AF3C363FFFC8452020
330
DAE
330
0
330
0
360
0
 94
        0
1001
ACAD
1000
AcadProxyRoundTripData
1071
      520
1071
 11403297
1070
     0
  0
ACAD_PROXY_OBJECT
  5
DC7
330
DC2
100
AcDbProxyObject
 90
      499
 91
      529
 93
       77
310
40AF3C363FFFC9452020
330
DB4
330
0
330
0
360
0
 94
        0
1001
ACAD
1000
AcadProxyRoundTripData
1071
      520
1071
 11403297
1070
     0
  0
ACAD_PROXY_OBJECT
  5
DD4
330
DC2
100
AcDbProxyObject
 90
      499
 91
      529
 93
       30
310
40A789D0
330
DBE
330
0
330
0
360
DD5
 94
        0
1001
ACAD
1000
AcadProxyRoundTripData
1071
      521
1071
 11403297
1070
     0
  0
ACAD_PROXY_OBJECT
  5
DC8
330
DC2
100
AcDbProxyObject
 90
      499
 91
      529
 93
       70
310
40AB89B4AD22901005
330
DEB
330
0
330
0
360
0
 94
        0
1001
ACAD
1000
AcadProxyRoundTripData
1071
      519
1071
 11403297
1070
     0
  0
ACAD_PROXY_OBJECT
  5
DD2
330
DC2
100
AcDbProxyObject
 90
      499
 91
      529
 93
       30
310
40A788B0
330
DB9
330
0
330
0
360
DD3
 94
        0
1001
ACAD
1000
AcadProxyRoundTripData
1071
      521
1071
 11403297
1070
     0
  0
ACAD_PROXY_OBJECT
  5
DD6
330
DC2
100
AcDbProxyObject
 90
      499
 91
      529
 93
       70
310
40AB88BCAD23301004
330
DE8
330
0
330
0
360
0
 94
        0
1001
ACAD
1000
AcadProxyRoundTripData
1071
      519
1071
 11403297
1070
     0
  0
ACAD_PROXY_OBJECT
  5
DCA
330
DC2
100
AcDbProxyObject
 90
      499
 91
      529
 93
       70
310
40AB894CAD2C901004
330
DEA
330
0
330
0
360
0
 94
        0
1001
ACAD
1000
AcadProxyRoundTripData
1071
      519
1071
 11403297
1070
     0
  0
ACAD_PROXY_OBJECT
  5
DC4
330
DC2
100
AcDbProxyObject
 90
      499
 91
      529
 93
       77
310
40AF3C363FFFC9A52020
330
DA6
330
0
330
0
360
0
 94
        0
1001
ACAD
1000
AcadProxyRoundTripData
1071
      520
1071
 11403297
1070
     0
  0
ACAD_PROXY_OBJECT
  5
DC5
330
DC2
100
AcDbProxyObject
 90
      499
 91
      529
 93
       77
310
40AF3C363FFFC9FD2020
330
DB3
330
0
330
0
360
0
 94
        0
1001
ACAD
1000
AcadProxyRoundTripData
1071
      520
1071
 11403297
1070
     0
  0
ACAD_PROXY_OBJECT
  5
DC6
330
DC2
100
AcDbProxyObject
 90
      499
 91
      529
 93
       77
310
40AF3C363FFFC98D2020
330
D9D
330
0
330
0
360
0
 94
        0
1001
ACAD
1000
AcadProxyRoundTripData
1071
      520
1071
 11403297
1070
     0
  0
ACAD_PROXY_OBJECT
  5
DE2
330
DC2
100
AcDbProxyObject
 90
      499
 91
      529
 93
       77
310
40AF3C363FFFC9C52020
330
DB6
330
0
330
0
360
0
 94
        0
1001
ACAD
1000
AcadProxyRoundTripData
1071
      520
1071
 11403297
1070
     0
  0
ACAD_PROXY_OBJECT
  5
DDE
330
DC2
100
AcDbProxyObject
 90
      499
 91
      529
 93
       77
310
40AF3C363FFFC99D2020
330
DA7
330
0
330
0
360
0
 94
        0
1001
ACAD
1000
AcadProxyRoundTripData
1071
      520
1071
 11403297
1070
     0
  0
ACAD_PROXY_OBJECT
  5
DDA
330
DC2
100
AcDbProxyObject
 90
      499
 91
      529
 93
       77
310
40AF3C363FFFC83D2020
330
DAD
330
0
330
0
360
0
 94
        0
1001
ACAD
1000
AcadProxyRoundTripData
1071
      520
1071
 11403297
1070
     0
  0
ACAD_PROXY_OBJECT
  5
DE5
330
DC2
100
AcDbProxyObject
 90
      499
 91
      529
 93
       30
310
40A78A08
330
DBF
330
0
330
0
360
DE6
 94
        0
1001
ACAD
1000
AcadProxyRoundTripData
1071
      521
1071
 11403297
1070
     0
  0
ACAD_PROXY_OBJECT
  5
DE1
330
DC2
100
AcDbProxyObject
 90
      499
 91
      529
 93
       77
310
40AF3C363FFFC9F52020
330
DB7
330
0
330
0
360
0
 94
        0
1001
ACAD
1000
AcadProxyRoundTripData
1071
      520
1071
 11403297
1070
     0
  0
ACAD_PROXY_OBJECT
  5
DD9
330
DC2
100
AcDbProxyObject
 90
      499
 91
      529
 93
       77
310
40AF3C363FFFC8A52020
330
DA3
330
0
330
0
360
0
 94
        0
1001
ACAD
1000
AcadProxyRoundTripData
1071
      520
1071
 11403297
1070
     0
  0
ACAD_PROXY_OBJECT
  5
DE4
330
DC2
100
AcDbProxyObject
 90
      499
 91
      529
 93
       77
310
40AF3C363FFFC9952020
330
DAC
330
0
330
0
360
0
 94
        0
1001
ACAD
1000
AcadProxyRoundTripData
1071
      520
1071
 11403297
1070
     0
  0
ACAD_PROXY_OBJECT
  5
DE0
330
DC2
100
AcDbProxyObject
 90
      499
 91
      529
 93
       77
310
40AF3C363FFFC8DD2020
330
DB1
330
0
330
0
360
0
 94
        0
1001
ACAD
1000
AcadProxyRoundTripData
1071
      520
1071
 11403297
1070
     0
  0
ACAD_PROXY_OBJECT
  5
DDC
330
DC2
100
AcDbProxyObject
 90
      499
 91
      529
 93
       30
310
40A78920
330
DBB
330
0
330
0
360
DDD
 94
        0
1001
ACAD
1000
AcadProxyRoundTripData
1071
      521
1071
 11403297
1070
     0
  0
ACAD_PROXY_OBJECT
  5
DD8
330
DC2
100
AcDbProxyObject
 90
      499
 91
      529
 93
       70
310
40AB891CAD22901005
330
DE9
330
0
330
0
360
0
 94
        0
1001
ACAD
1000
AcadProxyRoundTripData
1071
      519
1071
 11403297
1070
     0
  0
ACAD_PROXY_OBJECT
  5
DE3
330
DC2
100
AcDbProxyObject
 90
      499
 91
      529
 93
      126
310
40AB8A04940B91F85EA50B8508101004
330
DED
330
0
330
0
360
0
 94
        0
1001
ACAD
1000
AcadProxyRoundTripData
1071
      519
1071
 11403297
1070
     0
  0
ACAD_PROXY_OBJECT
  5
DDF
330
DC2
100
AcDbProxyObject
 90
      499
 91
      529
 93
       70
310
40AB88ACAD2C901004
330
DE7
330
0
330
0
360
0
 94
        0
1001
ACAD
1000
AcadProxyRoundTripData
1071
      519
1071
 11403297
1070
     0
  0
ACAD_PROXY_OBJECT
  5
DDB
330
DC2
100
AcDbProxyObject
 90
      499
 91
      529
 93
       77
310
40AF3C363FFFC9152020
330
DB2
330
0
330
0
360
0
 94
        0
1001
ACAD
1000
AcadProxyRoundTripData
1071
      520
1071
 11403297
1070
     0
  0
ACAD_PROXY_OBJECT
  5
DCC
330
DCB
100
AcDbProxyObject
 90
      499
 91
      529
 93
      137
310
4050140505640031003D00320030005A00B0
1001
ACAD
1000
AcadProxyRoundTripData
1071
      522
1071
 11403297
1070
     0
  0
ACAD_PROXY_OBJECT
  5
DD0
330
DCF
100
AcDbProxyObject
 90
      499
 91
      529
 93
      137
310
4050140505640033003D00320035005A00B0
1001
ACAD
1000
AcadProxyRoundTripData
1071
      522
1071
 11403297
1070
     0
  0
ACAD_PROXY_OBJECT
  5
DCE
330
DCD
100
AcDbProxyObject
 90
      499
 91
      529
 93
      169
310
40501405074A53845F31003D003100300030007A0080
1001
ACAD
1000
AcadProxyRoundTripData
1071
      522
1071
 11403297
1070
     0
  0
ACAD_PROXY_OBJECT
  5
DD5
330
DD4
100
AcDbProxyObject
 90
      499
 91
      529
 93
      169
310
40501405074A53845F33003D003100300030007A0080
1001
ACAD
1000
AcadProxyRoundTripData
1071
      522
1071
 11403297
1070
     0
  0
ACAD_PROXY_OBJECT
  5
DD3
330
DD2
100
AcDbProxyObject
 90
      499
 91
      529
 93
      169
310
40501405074A53845F32003D003100300030007A0080
1001
ACAD
1000
AcadProxyRoundTripData
1071
      522
1071
 11403297
1070
     0
  0
ACAD_PROXY_OBJECT
  5
DE6
330
DE5
100
AcDbProxyObject
 90
      499
 91
      529
 93
      185
310
4050140508640034003D00310032002E00310038008A0080
1001
ACAD
1000
AcadProxyRoundTripData
1071
      522
1071
 11403297
1070
     0
  0
ACAD_PROXY_OBJECT
  5
DDD
330
DDC
100
AcDbProxyObject
 90
      499
 91
      529
 93
      137
310
4050140505640032003D00320030005A00AE
1001
ACAD
1000
AcadProxyRoundTripData
1071
      522
1071
 11403297
1070
     0
  0
ENDSEC
  0
EOF
